<?xml version="1.0" standalone="no"?>
<!DOCTYPE svg PUBLIC "-//W3C//DTD SVG 1.1//EN" "http://www.w3.org/Graphics/SVG/1.1/DTD/svg11.dtd" >
<svg xmlns="http://www.w3.org/2000/svg">
  <metadata>Created by iconfont</metadata>
  <defs>
  <font id="iconfont" horiz-adv-x="1024">
    <font-face
      font-family="iconfont"
      font-weight="400"
      font-stretch="normal"
      units-per-em="1024"
      ascent="896"
      descent="-128"
    />
      <missing-glyph />
      
      <glyph glyph-name="bofang01-L" unicode="&#58963;" d="M591.04 627.776l3.776-2.176c69.632-39.552 124.416-70.656 163.392-99.2 39.296-28.672 68.352-58.624 78.72-98.176 7.68-28.992 7.68-59.52 0-88.448-10.368-39.552-39.424-69.504-78.72-98.24-39.04-28.48-93.76-59.52-163.392-99.2l-3.84-2.112c-67.264-38.208-120.256-68.352-163.328-86.656-43.456-18.496-83.008-27.84-121.536-16.896a170.816 170.816 0 0 0-74.688 44.16c-28.16 28.352-39.424 67.584-44.8 114.752-5.312 46.912-5.312 108.224-5.312 186.24v4.288c0 78.08 0 139.392 5.312 186.24 5.376 47.232 16.64 86.464 44.8 114.88a170.88 170.88 0 0 0 74.688 44.16c38.528 10.88 78.08 1.472 121.6-16.96 43.008-18.304 96-48.448 163.328-86.656zM402.56 655.552c-39.36 16.704-62.016 19.072-79.04 14.208a106.88 106.88 0 0 1-46.72-27.584c-12.672-12.8-21.76-34.048-26.624-76.992-4.864-42.88-4.928-100.544-4.928-181.184s0.064-138.368 4.928-181.184c4.864-42.88 13.952-64.192 26.624-76.992 12.992-13.12 29.12-22.592 46.72-27.584 17.024-4.864 39.68-2.56 79.04 14.208 39.296 16.704 89.088 44.992 158.72 84.48 71.936 40.96 123.456 70.208 159.104 96.32 35.84 26.112 49.92 45.056 54.592 62.784a109.888 109.888 0 0 1 0 55.936c-4.672 17.728-18.816 36.672-54.592 62.784-35.648 26.048-87.168 55.424-159.168 96.32-69.568 39.488-119.36 67.712-158.72 84.48z"  horiz-adv-x="1024" />
      
      <glyph glyph-name="dianhua" unicode="&#59103;" d="M794.6-32.3c-36.4 0-79.7 9-127.6 27.1C564.5 33.4 453.3 109.5 353.9 209c-99.5 99.5-175.5 210.7-214.1 313.2-37.2 98.8-36 178 3.4 217.5 4.8 4.8 9.7 9.9 14.9 15.4 32 33.6 71.8 75.4 125.9 73.2 37.2-1.6 72.4-23.6 107.6-67.3 46.1-57.4 64.2-100.7 58.6-140.5-5.3-38.1-31.7-64.1-57.2-89.2-2.9-2.8-5.8-5.7-8.7-8.6-0.4-0.4-0.6-1.4-0.6-2.9 0-10 8.6-51.3 119.2-161.8 45.6-45.6 84.3-78.8 114.9-98.7 34.6-22.5 48.8-21.2 50-20 2.9 2.9 5.7 5.8 8.5 8.6 25.1 25.5 51.1 52 89.2 57.3 39.8 5.6 83.1-12.5 140.5-58.6 43.7-35.1 65.7-70.3 67.2-107.5 2.2-54.1-39.6-93.8-73.2-125.8-5.5-5.2-10.7-10.1-15.4-14.9-20.4-20.5-51.3-30.7-90-30.7zM279.9 768.2c-26.4 0-54-29-78.4-54.6-5.2-5.5-10.6-11.2-15.9-16.5-16.7-16.7-20.6-72 10.3-153.9 35.7-94.6 106.9-198.3 200.4-291.9 93.6-93.6 197.2-164.7 291.9-200.5 81.9-30.9 137.2-27 153.9-10.3 5.3 5.3 11 10.7 16.5 16 26.1 24.8 55.7 52.9 54.6 79.8-0.8 18.6-15.9 39.9-44.9 63.3-41.6 33.5-73.5 49-94.6 46-17.9-2.5-34.2-19-54.8-40-2.9-3-5.9-6-8.9-9-11.3-11.2-31.5-23.1-64.2-16-17.9 3.9-37.9 13.1-61 28.1-34.5 22.5-75.3 57.3-124.5 106.5-122.6 122.6-136.8 175.4-136.8 204.4 0 17.8 6.3 33.5 18.2 45.4 3 3 6 6 9 8.9 20.9 20.6 37.4 36.8 39.9 54.8 3 21.1-12.5 53-45.9 94.6-23.3 29-44.6 44.2-63.3 44.9h-1.5z"  horiz-adv-x="1024" />
      
      <glyph glyph-name="dianhua1" unicode="&#58938;" d="M766.4 396.8c-19.2 49.6-67.2 83.2-120 83.2H624v48c0 17.6-14.4 32-32 32s-32-14.4-32-32v-48h-96v48c0 17.6-14.4 32-32 32s-32-14.4-32-32v-48h-24c-52.8 0-100.8-33.6-120-83.2l-96-256c-4.8-14.4-8-28.8-8-44.8 0-70.4 57.6-128 128-128h462.4c16 0 30.4 3.2 44.8 8 65.6 24 99.2 99.2 75.2 164.8l-96 256z m0-360c-8-3.2-14.4-4.8-22.4-4.8h-464c-35.2 0-64 28.8-64 64 0 8 1.6 16 4.8 22.4l96 256c9.6 25.6 33.6 41.6 59.2 41.6h270.4c27.2 0 51.2-16 59.2-41.6l96-256c14.4-33.6-3.2-70.4-35.2-81.6zM512 352c-52.8 0-96-43.2-96-96s43.2-96 96-96 96 43.2 96 96-43.2 96-96 96z m0-128c-17.6 0-32 14.4-32 32s14.4 32 32 32 32-14.4 32-32-14.4-32-32-32zM920 686.4l-1.6 1.6C835.2 756.8 680 800 512 800 342.4 800 187.2 756.8 105.6 688c-16-12.8-25.6-30.4-25.6-51.2V544c0-35.2 28.8-64 64-64h73.6c22.4 0 44.8 12.8 56 32 1.6 1.6 4.8 9.6 8 16 1.6 4.8 4.8 8 4.8 9.6 6.4 12.8 12.8 22.4 20.8 32 40 48 105.6 72 204.8 73.6 99.2 0 168-22.4 208-70.4 8-9.6 14.4-19.2 20.8-32 1.6-4.8 4.8-8 6.4-14.4 1.6-3.2 3.2-8 4.8-11.2 11.2-22.4 33.6-36.8 57.6-36.8H880c35.2 0 64 28.8 64 64v92.8c0 19.2-8 35.2-24 51.2zM880 544h-68.8c0 1.6-4.8 9.6-4.8 11.2l-12.8-4.8 12.8 4.8s0 1.6-1.6 1.6l-6.4 14.4c-8 16-17.6 30.4-28.8 43.2-52.8 64-137.6 94.4-257.6 94.4-118.4-1.6-201.6-33.6-254.4-97.6-9.6-12.8-19.2-25.6-27.2-43.2-1.6-1.6-3.2-6.4-4.8-11.2-3.2-4.8-6.4-11.2-6.4-14.4H144v92.8l1.6 1.6C216 697.6 360 736 512 736c150.4 0 292.8-36.8 363.2-94.4 3.2-3.2 4.8-4.8 4.8-6.4V544z"  horiz-adv-x="1024" />
      
      <glyph glyph-name="douyin1" unicode="&#58989;" d="M403.04-128c-86.63 0-167.98 35.41-229.05 99.72C113.38 35.54 80 120.29 80 210.35s33.38 174.81 93.99 238.63c61.07 64.31 142.41 99.72 229.05 99.72 17.65 0 35.3-1.51 52.44-4.49 16.72-2.91 28.93-17.44 28.93-34.43v-173.89c0-11.57-5.72-22.39-15.27-28.89a34.854 34.854 0 0 0-32.45-3.61 87.249 87.249 0 0 1-32.23 6.15h-0.16c-51.72 0-93.74-45.07-93.74-100.46s42.06-100.46 93.76-100.46c51.61 0 93.6 45.07 93.6 100.46V861.06c0 19.3 15.63 34.94 34.9 34.94h160.75c19.28 0 34.9-15.64 34.9-34.94 0-105.86 81.04-191.98 180.65-191.98 19.28 0 34.9-15.64 34.9-34.94v-168.01c0-19.3-15.63-34.94-34.9-34.94h-1.21c-42.67 0.02-84.83 6.9-125.3 20.44a395.622 395.622 0 0 0-56.52 23.92v-265.2c0-90.06-33.38-174.81-93.99-238.63-61.09-64.31-142.43-99.72-229.06-99.72z m0 606.82c-139.63 0-253.23-120.44-253.23-268.47 0-148.03 113.6-268.47 253.23-268.47s253.23 120.43 253.23 268.47v328.3c0 13.24 7.48 25.35 19.31 31.26 11.83 5.92 25.99 4.62 36.56-3.33 47.07-35.43 103.61-57.51 162.05-63.71V601.7c-53.97 7.81-103.74 33.7-142.81 74.83-38.97 41.03-63.39 93.19-70.54 149.59H567.7v-617.04c0-93.93-73.3-170.35-163.4-170.35-90.19 0-163.56 76.42-163.56 170.35s73.34 170.35 163.48 170.35c3.46-0.01 6.93-0.1 10.37-0.32v99.44c-3.84 0.18-7.69 0.27-11.55 0.27z"  horiz-adv-x="1024" />
      
      <glyph glyph-name="tishig" unicode="&#59130;" d="M512-89.2c-63.9 0-125.8 12.5-184.2 37.2-56.4 23.8-107 58-150.4 101.4-43.5 43.4-77.6 94-101.4 150.4C51.3 258.2 38.8 320.1 38.8 384S51.3 509.8 76 568.2c23.8 56.4 58 107 101.4 150.4s94 77.6 150.4 101.4C386.2 844.7 448.1 857.2 512 857.2S637.8 844.7 696.2 820c56.4-23.8 107-58 150.4-101.4 43.5-43.5 77.6-94.1 101.4-150.4 24.7-58.4 37.2-120.3 37.2-184.2S972.7 258.2 948 199.8c-23.8-56.4-58-107-101.4-150.4-43.5-43.5-94.1-77.6-150.4-101.4-58.4-24.7-120.3-37.2-184.2-37.2z m0 886.4C284.1 797.2 98.8 611.9 98.8 384S284.1-29.2 512-29.2 925.2 156.1 925.2 384 739.9 797.2 512 797.2zM512 91.5c-16.6 0-30 13.4-30 30V457c0 16.6 13.4 30 30 30s30-13.4 30-30v-335.5c0-16.6-13.4-30-30-30zM512 604.5m-42 0a42 42 0 1 1 84 0 42 42 0 1 1-84 0Z"  horiz-adv-x="1024" />
      
      <glyph glyph-name="bangzhuwendang" unicode="&#59156;" d="M597 834H285.9c-90.5 0-164.1-73.6-164.1-164.1V73h0.2c-0.1-2.3-0.2-4.5-0.2-6.8 0-72.9 59.3-132.2 132.2-132.2h618V834H597z m-60-60v-223.3l-71.6 49.9-71.6-49.9V774H537z m275-780H254c-39.8 0-72.2 32.4-72.2 72.2s32.4 72.2 72.2 72.2h558V-6zM254 198.3c-26.6 0-51.4-7.9-72.2-21.5V669.9c0 57.4 46.7 104.1 104.1 104.1h47.9v-272.6c0-12.8 7.1-24.5 18.4-30.4 11.4-5.9 25-5.1 35.5 2.3l77.7 54.2 77.7-54.2c5.9-4.1 12.7-6.2 19.6-6.2 5.4 0 10.9 1.3 15.9 3.9 11.4 5.9 18.4 17.6 18.4 30.4V774h215v-575.7H254z"  horiz-adv-x="1024" />
      
      <glyph glyph-name="caiwuguanli" unicode="&#59039;" d="M871.8-58H188.5h-0.1c-46.5 0-89.1 27.4-108.5 69.7v0.1c-6.5 14.3-9.9 30.1-9.8 45.8v469c0 31.9 11.4 59.5 33.7 81.9 22.3 22.3 49.9 33.7 81.8 33.7h682.5c32 0 59.5-11.3 81.8-33.7 22.4-22.4 33.7-49.9 33.7-81.9v-157.8H740.3c-16 0-28.6-5-39.6-15.8l-0.2-0.2c-10.2-9.8-15.9-23.5-15.7-37.7 0.4-11.8 2.8-22.1 7.1-30.6l0.3-0.7c2.9-6.2 8.2-12.2 15.8-18 6.1-4.6 17.5-7.1 32.2-7.1h243.4v-231.1H980c-1.2-4.9-2.7-9.6-4.5-14.3-10.9-28-32.1-50-59.6-62.1l-0.3-0.1c-13.9-6.1-28.6-9.1-43.8-9.1z m-683.3 60H871.4c7.2-0.1 14 1.3 20.6 4.1 12.8 5.7 22.7 16 27.8 29 2.4 6.2 3.7 12.8 4 20V198.6H740.3c-28.5 0-51.6 6.5-68.4 19.3-15.3 11.5-26.6 25-33.8 39.9-8.1 16.2-12.6 34.9-13.3 55.3v0.4c-0.7 30.9 11.7 60.9 34 82.3 22.3 21.8 49.7 32.9 81.6 32.9h183.4v97.8c0 15.9-5.1 28.4-16.1 39.4-11 11-23.5 16.1-39.4 16.1H185.6c-15.9 0-28.4-5.1-39.4-16.1-11-11-16.2-23.6-16.2-39.4v-469.2c0-7.1 1.5-14.3 4.4-20.8 9.7-20.9 30.9-34.5 54.1-34.5-0.1 0-0.1 0 0 0zM875.3 681.1H275.8l109.4 56.6c31.8 16.5 63.9 33.5 95.4 50.5l0.4 0.2c23.4 12.2 48.1 25.3 77.7 41.2 28.4 15.2 46.4 24.8 60.2 32 26.7 14.5 51.8 21.2 74.5 19.9 20.4-1.1 38.5-4.8 53.7-11.2l1-0.4 0.9-0.5c17.2-8.7 32.3-20.2 44.7-34.2l2.4-2.7 79.2-151.4z m-355.3 60h256.3L746.5 798c-6.6 6.9-14.5 12.7-23.5 17.4-8.7 3.5-19.7 5.5-32.8 6.2h-0.2c-11.5 0.6-25.8-3.7-42.7-12.8l-0.4-0.2c-15-7.8-36.9-19.5-59.9-31.9-25.1-13.4-46.7-24.9-67-35.6zM740.3 314.2c0 11.9 4.1 21.9 12.2 30.1 7.9 8.1 18.8 12.5 30.1 12.3 11.9 0 21.9-4.1 30.1-12.3 8.2-8.1 12.2-18.2 12.2-30.1 0.2-11.4-4.2-22.4-12.2-30.6-7.8-8.3-18.7-12.9-30.1-12.7-11.4-0.2-22.3 4.4-30.1 12.7-8 8.2-12.4 19.2-12.2 30.6z"  horiz-adv-x="1024" />
      
      <glyph glyph-name="zhangdanmingxi" unicode="&#59143;" d="M795.3 477.2h-73.5V679.3c0 44.8-36.4 81.2-81.2 81.2H188c-44.8 0-81.2-36.4-81.2-81.2v-486.4c0-102.2 83.2-185.4 185.4-185.4H721.9v0.2c104.9 4.3 189 91 189 196.9V361.7c0 63.7-51.9 115.5-115.6 115.5z m-153-409.7H292.2c-69.1 0-125.4 56.2-125.4 125.4V679.3c0 11.7 9.5 21.2 21.2 21.2h452.6c11.7 0 21.2-9.5 21.2-21.2v-611.8h-19.5z m208.6 137.1c0-72.9-57.2-132.7-129-136.9V417.2h73.5c30.6 0 55.5-24.9 55.5-55.5v-157.1zM559.3 571.5h-290c-16.6 0-30-13.4-30-30s13.4-30 30-30h290c16.6 0 30 13.4 30 30s-13.4 30-30 30zM559.3 256.5h-290c-16.6 0-30-13.4-30-30s13.4-30 30-30h290c16.6 0 30 13.4 30 30s-13.4 30-30 30zM269.3 354h172c16.6 0 30 13.4 30 30s-13.4 30-30 30h-172c-16.6 0-30-13.4-30-30s13.4-30 30-30z"  horiz-adv-x="1024" />
      
      <glyph glyph-name="jinbi" unicode="&#58954;" d="M992.008442 684.790023c0 137.173922-247.314194 211.208954-480.007419 211.208954-231.345533 0-477.123748-73.177503-479.977743-208.821585l-0.031722 0.013303 0-608.931463 0.118703-0.045025c5.930048-133.980189 250.034137-206.213183 479.888716-206.213183 229.864812 0 473.978111 72.239133 479.888716 206.226486l0.121773 0.031722L992.009466 684.178087l-0.00921 0C991.999233 684.379678 992.008442 684.584339 992.008442 684.790023L992.008442 684.790023zM92.201751 362.60885c79.673438-64.470208 233.499588-106.25888 419.796203-106.25888 186.287405 0 340.116625 41.785602 419.796203 106.251717l0-104.819091c-20.157045-67.532958-186.913667-137.34686-419.796203-137.34686-232.936771 0-399.703626 69.845625-419.796203 137.394955L92.201751 362.60885 92.201751 362.60885zM931.800296 453.929536c-20.163185-67.528864-186.92083-137.34993-419.799272-137.34993-232.936771 0-399.703626 69.855858-419.799272 137.398025L92.201751 578.287596c87.519111-68.562402 257.220802-104.703458 419.799272-104.703458 162.575401 0 332.277092 36.136963 419.799272 104.703458L931.800296 453.929536 931.800296 453.929536zM511.997953 835.761154c242.402334 0 423.537403-79.70823 423.537403-150.972155 0-71.266994-181.135068-150.972155-423.537403-150.972155-242.405404 0-423.537403 79.70516-423.537403 150.972155C88.461574 756.052924 269.596642 835.761154 511.997953 835.761154L511.997953 835.761154zM511.997953-67.766271c-222.123516 0-392.794276 66.924092-419.796203 132.958932l0 101.276412c79.673438-64.476348 233.499588-106.26502 419.796203-106.26502 186.287405 0 340.116625 41.785602 419.796203 106.25581l0-101.263109C904.796323-0.842179 734.124539-67.766271 511.997953-67.766271L511.997953-67.766271z"  horiz-adv-x="1024" />
      
      <glyph glyph-name="zhouqi" unicode="&#58893;" d="M627.809524 459.385905l115.809524 0 0-115.809524-115.809524 0 0 115.809524ZM454.119619 459.385905l115.809524 0 0-115.809524-115.809524 0 0 115.809524ZM627.809524 250.709333l115.809524 0 0-115.809524-115.809524 0 0 115.809524ZM251.440762 715.215238c24.30781 0 44.007619 19.72419 44.007619 44.032L295.448381 847.238095l-88.015238 0 0-87.990857C207.433143 734.939429 227.132952 715.215238 251.440762 715.215238zM772.583619 712.143238c24.746667 0 44.763429 20.016762 44.763429 44.763429L817.347048 847.238095l-89.526857 0 0-90.331429C727.82019 732.16 747.910095 712.143238 772.583619 712.143238zM280.380952 250.709333l115.809524 0 0-115.809524-115.809524 0 0 115.809524ZM454.119619 250.709333l115.809524 0 0-115.809524-115.809524 0 0 115.809524ZM859.40419 836.583619l0-76.214857c0-47.981714-38.887619-86.869333-86.869333-86.869333-47.957333 0-86.844952 38.912-86.844952 86.869333L685.689905 847.238095l-347.428571 0 0-86.869333c0-47.981714-38.912-86.869333-86.869333-86.869333-48.006095 0-86.869333 38.912-86.869333 86.869333L164.522667 836.583619C97.28 812.641524 48.761905 749.031619 48.761905 673.499429l0-579.047619C48.761905-1.487238 126.537143-79.238095 222.500571-79.238095l579.023238 0C897.487238-79.238095 975.238095-1.487238 975.238095 94.45181L975.238095 673.499429C975.238095 749.031619 926.744381 812.641524 859.40419 836.583619zM875.690667 71.875048c0-34.03581-27.282286-61.68381-60.903619-61.68381L205.482667 10.191238c-33.694476 0-60.952381 27.648-60.952381 61.68381L144.530286 565.248l731.160381 0L875.690667 71.875048zM280.380952 459.385905l115.809524 0 0-115.809524-115.809524 0 0 115.809524Z"  horiz-adv-x="1024" />
      
      <glyph glyph-name="zhuanjia" unicode="&#59169;" d="M750.933333 512L512 597.333333 273.066667 512l238.933333-81.066667L750.933333 512zM682.666667 358.4v85.333333l-162.133334-55.466666h-4.266666l-4.266667-4.266667h-4.266667L298.666667 456.533333V298.666667c0-17.066667 12.8-34.133333 29.866666-38.4l183.466667-64c12.8 0 21.333333-8.533333 21.333333-21.333334s-8.533333-21.333333-21.333333-21.333333h-4.266667c-4.266667 0-4.266667 0-8.533333 4.266667l-213.333333 76.8c-17.066667 0-29.866667 17.066667-29.866667 34.133333V473.6l-76.8 25.6C170.666667 503.466667 170.666667 512 170.666667 516.266667c0 4.266667 4.266667 8.533333 8.533333 8.533333L503.466667 640H516.266667l324.266666-115.2c12.8-4.266667 12.8-8.533333 12.8-17.066667 0-4.266667-4.266667-8.533333-8.533333-8.533333l-119.466667-42.666667v-98.133333c25.6-8.533333 42.666667-34.133333 42.666667-59.733333s-17.066667-51.2-42.666667-59.733334v-89.6c0-12.8-8.533333-21.333333-21.333333-21.333333s-21.333333 8.533333-21.333333 21.333333v89.6c-25.6 8.533333-42.666667 34.133333-42.666667 59.733334s17.066667 51.2 42.666667 59.733333z m21.333333-81.066667c12.8 0 21.333333 8.533333 21.333333 21.333334s-8.533333 21.333333-21.333333 21.333333-21.333333-8.533333-21.333333-21.333333 8.533333-21.333333 21.333333-21.333334z"  horiz-adv-x="1024" />
      
      <glyph glyph-name="caizhi" unicode="&#59078;" d="M490.666667 853.333333L85.333333 618.666667v-469.333334l405.333334-234.666666 405.333333 234.666666v469.333334zM469.333333 270.08l-85.333333 49.493333v-98.133333L469.333333 170.666667v-97.706667L384 123.733333v-98.133333l-85.333333 49.493333V170.666667l-85.333334 51.626666v-97.706666l-85.333333 49.493333v97.706667l85.333333-49.493334v98.133334l-85.333333 49.493333V469.333333l85.333333-51.2V515.84l85.333334-49.493333v-98.133334l85.333333-49.066666v98.133333l85.333333-49.493333zM145.92 604.586667l344.746667 199.253333 344.746666-199.253333-344.746666-199.253334zM853.333333 174.08l-341.333333-197.546667v391.68l341.333333 197.12zM298.666667 368.64L213.333333 418.133333v-97.706666l85.333334-49.493334v97.706667zM298.666667 172.8l85.333333-49.066667v97.706667l-85.333333 49.493333v-98.133333z"  horiz-adv-x="1024" />
      
      <glyph glyph-name="niannian2" unicode="&#58885;" d="M809.61657 495.643035a2547.857061 2547.857061 0 0 1 691.722048 312.508854L1444.387905 896C984.06904 597.8270150000001 505.028447 518.226939 294.572652 518.226939H0v-104.736943h294.572652c143.096848 0 330.837819 29.98095 515.043918 82.153039zM294.572652 354.575465H0v-104.736943h294.572652c210.455795 0 689.496388-79.600077 1149.815253-377.773061l56.950713 87.848111a2547.857061 2547.857061 0 0 1-691.722048 312.508853C625.410471 324.594515 437.669501 354.575465 294.572652 354.575465zM737.348079 476.397622a250.9759 250.9759 0 0 0 19.638177-90.793838 252.416033 252.416033 0 0 0-20.685546-93.608642c18.787189-4.713162 37.508918-9.688167 56.296106-14.859554-13.681263 33.188519-26.184236 64.544141-26.184235 108.468196 0 31.355622 15.186857 76.58889 26.184235 105.391549-18.328965-5.105926-36.788851-10.01547-55.248737-14.597711zM827.356389 500.879882c12.502973-30.962859 25.59509-71.02474 25.595091-114.948795s-14.008566-87.324426-26.184236-118.483666c24.613182-7.200665 49.095442-14.597711 73.381321-22.452983-18.067123 43.793134-35.283258 83.593173-35.283258 140.936649 0 41.567474 21.929297 103.165889 35.348718 137.139935-24.220418-7.78981-48.506297-15.121396-72.857636-22.19114zM1037.419421 571.7737010000001q-43.662213-16.888832-88.109954-32.20661a474.982037 474.982037 0 0 0 28.344436-153.636004 476.356709 476.356709 0 0 0-29.588187-157.105414q45.822413-15.841463 91.121141-33.31944c-30.373713 73.643163-42.025698 91.186601-42.025699 190.293933 0 70.566515 20.227322 135.241578 40.258263 185.973535zM1265.876878 94.89330700000005c-36.788851 88.764559-70.042831 173.27418-70.042831 291.03778 0 89.877389 36.330627 210.063031 64.41322 284.426261q-66.115195-33.188519-134.325129-62.514863c23.173049-63.234929 43.793134-139.627437 43.793134-221.911398 0-83.724094-21.405613-161.294892-44.971425-225.184427q71.679345-30.831938 141.133031-65.853353z"  horiz-adv-x="1501" />
      
      <glyph glyph-name="shequ" unicode="&#59233;" d="M624.3 254.1c76.8 76.8 136.6 162.1 168.4 240.1 35.2 86.3 32.4 156-7.9 196.3-23.3 23.3-57.6 34.5-98.9 32.1-35.1-2-75-13.3-118.5-33.5-13.6 2.1-27.4 3.3-41.3 3.7-3 0.1-5.9 0.1-8.9 0.1-44.8 0-88.2-8.8-129.1-26.1-39.5-16.7-75-40.6-105.4-71.1s-54.4-65.9-71.1-105.4c-17.3-40.9-26.1-84.3-26.1-129.1 0-4.4 0.1-8.7 0.3-13.1 0.5-12.5 1.6-24.9 3.5-37.1-19-40.9-30.1-78.7-33-112.5-4.8-55.8 14.6-87.9 31.7-105 21.6-21.6 51.6-32.4 88-32.4 31.6 0 68.1 8.1 108.2 24.5 78 31.9 163.3 91.7 240.1 168.5zM230.3 136c-15.2 15.2-18.7 43.3-11.1 79.3 5.8-11.9 12.3-23.3 19.5-34.4 7.2-11.2 15.1-21.9 23.7-32.1 15.8-3.5 41.1-1.5 74.1 9.7-34.3 30.6-60.8 69.8-76.2 114.1-9.6 27.8-14.9 57.6-14.9 88.6 0 40.5 8.9 78.9 24.9 113.5 26.7 57.9 73.2 104.8 130.8 132.1 35.2 16.7 74.5 26.1 116 26.1 29.7 0 58.2-4.8 85-13.6 47-15.5 88.3-43.5 120.1-80.1 10.6 29.3 14.9 53.6 13.9 71.1a328.16 328.16 0 0 1-46.8 34.5c-8.5 5.1-17.2 9.9-26.1 14.3 36 7.4 64.2 3.9 79.1-11 21.5-21.5 19.5-70.5-5.2-131.2-28.8-70.8-84-149-155.3-220.3S432.3 170.1 361.6 141.3c-60.7-24.8-109.8-26.7-131.3-5.3zM822.7 490.4c-2.1 4.9-4.3 9.7-6.6 14.5-1.8-4.9-3.7-9.9-5.7-14.9-8.2-20.2-18.3-40.9-30-61.8 5.5-21.4 8.4-43.9 8.4-67 0-149.8-121.9-271.7-271.7-271.7-24.1 0-47.5 3.2-69.8 9.1-18.2-9.8-36.2-18.4-53.8-25.6-8.1-3.3-16.1-6.3-23.9-8.9 6-3 12.2-5.8 18.4-8.5 40.9-17.3 84.3-26.1 129.1-26.1s88.2 8.8 129.1 26.1c39.5 16.7 75 40.6 105.4 71.1 30.5 30.5 54.4 65.9 71.1 105.4 17.3 40.9 26.1 84.3 26.1 129.1s-8.8 88.3-26.1 129.2zM495.6 538.5m-33.6 0a33.6 33.6 0 1 1 67.2 0 33.6 33.6 0 1 1-67.2 0ZM477.7 430.6m-15.7 0a15.7 15.7 0 1 1 31.4 0 15.7 15.7 0 1 1-31.4 0ZM350.1 398.9m-31.7 0a31.7 31.7 0 1 1 63.4 0 31.7 31.7 0 1 1-63.4 0Z"  horiz-adv-x="1024" />
      
      <glyph glyph-name="shoucang" unicode="&#59234;" d="M294.9-33c-17.2 0-34.2 5.4-48.8 16-25.8 18.7-38.5 49.9-33.1 81.3l32 186.6c1.3 7.5-1.2 15.2-6.6 20.5l-135.5 132c-22.8 22.2-30.9 54.9-21 85.2 9.8 30.3 35.6 52 67.1 56.6l187.3 27.2c7.5 1.1 14 5.8 17.4 12.6l83.8 169.7C451.6 783.3 480.2 801 512 801c31.9 0 60.4-17.8 74.5-46.3L670.3 585c3.4-6.8 9.9-11.6 17.4-12.6L875 545.1c31.5-4.6 57.2-26.3 67.1-56.6 9.8-30.3 1.8-63-21-85.2L785.5 271.2c-5.4-5.3-7.9-13-6.6-20.5l32-186.6c5.4-31.4-7.3-62.6-33.1-81.3-25.8-18.7-59.3-21.2-87.5-6.3l-167.5 88.1c-6.7 3.5-14.8 3.5-21.5 0l-167.5-88.1c-12.4-6.4-25.6-9.5-38.9-9.5zM512 127.3c13.3 0 26.6-3.2 38.7-9.5l167.5-88.1c11.5-6 20.8-0.8 24.3 1.8s11.4 9.8 9.2 22.6l-32 186.6c-4.6 27 4.3 54.5 23.9 73.6l135.5 132.1c9.3 9.1 7.2 19.6 5.8 23.7-1.3 4.1-5.8 13.9-18.7 15.7L679.1 513c-27.1 3.9-50.5 20.9-62.6 45.5l-83.8 169.7c-5.7 11.6-16.4 12.9-20.7 12.9s-15-1.3-20.7-12.9l-83.8-169.7C395.4 534 372 517 344.9 513l-187.3-27.2c-12.8-1.9-17.3-11.6-18.7-15.7-1.3-4.1-3.4-14.6 5.8-23.7l135.5-132.1c19.6-19.1 28.5-46.6 23.9-73.6l-32-186.6c-2.2-12.8 5.7-20.1 9.2-22.6 3.5-2.5 12.9-7.8 24.3-1.8l167.5 88.1c12.3 6.4 25.6 9.5 38.9 9.5z"  horiz-adv-x="1024" />
      
      <glyph glyph-name="shequh" unicode="&#59235;" d="M851.6 383c-3.2 42.2-14.4 82.2-32 118.5-1.7-4.7-3.6-9.5-5.5-14.3-8.2-20.2-18.3-40.9-30-61.8 5.5-21.4 8.4-43.9 8.4-67 0-149.8-121.9-271.7-271.7-271.7-24.1 0-47.5 3.2-69.8 9.1-18.2-9.8-36.2-18.4-53.8-25.6-7.8-3.2-15.6-6.1-23.2-8.7 44.3-22.2 94.4-34.7 147.3-34.8 44.6 0.1 87.8 8.8 128.6 26.1 39.5 16.7 75 40.6 105.4 71.1 30.5 30.5 54.4 65.9 71.1 105.4 17.3 40.9 26.1 84.3 26.1 129.1 0 8.3-0.3 16.5-0.9 24.6zM628 251.3c76.8 76.8 136.6 162.1 168.4 240.1 4.5 11 8.3 21.7 11.6 32.1 22.3 71.5 15.7 129.1-19.5 164.2-23.3 23.3-57.6 34.5-98.9 32.1-35.1-2-75-13.3-118.5-33.5-13.6 2.1-27.4 3.3-41.3 3.7-3 0.1-5.9 0.1-8.9 0.1-44.8 0-88.2-8.8-129.1-26.1-39.5-16.7-75-40.6-105.4-71.1S232 527 215.3 487.5c-17.3-40.9-26.1-84.3-26.1-129.1 0-4.4 0.1-8.7 0.3-13.1 0.5-12.5 1.6-24.9 3.5-37.1-19-40.9-30.1-78.7-33-112.5-4.8-55.8 14.6-87.9 31.7-105 21.6-21.6 51.6-32.4 88-32.4 23 0 48.6 4.3 76.3 13 10.4 3.2 21 7.1 31.9 11.5 78 31.9 163.3 91.7 240.1 168.5z m118.1 394c11.9-11.9 16.6-32.4 14.2-58.6-6.5 6.8-13.3 13.2-20.4 19.4v1.4a328.16 328.16 0 0 1-46.8 34.5c-8.5 5.1-17.2 9.9-26.1 14.3 36 7.4 64.2 3.9 79.1-11z m-244.2-78.1c18.5 0 33.6-15 33.6-33.6 0-18.5-15-33.6-33.6-33.6-18.5 0-33.6 15-33.6 33.6s15 33.6 33.6 33.6zM484 441.5c8.7 0 15.7-7 15.7-15.7s-7-15.7-15.7-15.7-15.7 7-15.7 15.7c0 8.6 7 15.7 15.7 15.7zM234.1 133.3c-15.2 15.2-18.7 43.3-11.1 79.3 5.8-11.9 12.3-23.3 19.5-34.4 7.2-11.2 15.1-21.9 23.7-32.1l1.8-0.3c7.8-9.3 16.1-18.2 24.9-26.7-26.4-2.4-46.9 2.2-58.8 14.2z m122.3 229.1c-17.5 0-31.7 14.2-31.7 31.7s14.2 31.7 31.7 31.7 31.7-14.2 31.7-31.7-14.2-31.7-31.7-31.7z"  horiz-adv-x="1024" />
      
      <glyph glyph-name="shangchangdingdan" unicode="&#59236;" d="M755.1-28.3H268.9c-43.3 0-84.5 18.6-113.2 51s-42.2 75.6-37 118.5l63.2 521.9c9.2 75.9 73.8 133.1 150.2 133.1h359.8c76.4 0 141-57.2 150.2-133.1l63.2-521.9c5.2-43-8.3-86.2-37-118.5-28.7-32.4-69.9-51-113.2-51z m-423 764.6c-46.1 0-85.1-34.5-90.7-80.3l-63.1-522c-3.1-25.9 5-52 22.3-71.5s42.2-30.8 68.3-30.8h486.2c26.1 0 51 11.2 68.3 30.8 17.3 19.5 25.5 45.6 22.3 71.5l-63.2 521.9c-5.5 45.8-44.5 80.3-90.7 80.3l-359.7 0.1zM512 384c-87 0-157.8 70.8-157.8 157.8 0 16.6 13.4 30 30 30s30-13.4 30-30c0-53.9 43.9-97.8 97.8-97.8s97.8 43.9 97.8 97.8c0 16.6 13.4 30 30 30s30-13.4 30-30c0-87-70.8-157.8-157.8-157.8z"  horiz-adv-x="1024" />
      
      <glyph glyph-name="huodong" unicode="&#59237;" d="M797.1 589.4H231.7c-37.5 0-67.9-30.5-67.9-67.9v-50.7c0-37.5 30.5-67.9 67.9-67.9h14.8v-287.6c0-59.5 48.4-108 108-108h319.8c59.5 0 108 48.4 108 108V402.8h14.8c37.5 0 67.9 30.5 67.9 67.9v50.7c0.1 37.5-30.4 68-67.9 68z m-74.8-474.3c0-26.4-21.5-48-48-48H354.5c-26.4 0-48 21.5-48 48V402.8h415.8v-287.7z m82.8 355.6c0-4.4-3.6-7.9-7.9-7.9H231.7c-4.4 0-7.9 3.6-7.9 7.9v50.7c0 4.4 3.6 7.9 7.9 7.9h565.5c4.4 0 7.9-3.6 7.9-7.9v-50.7zM593 655.4l100.1 59c10.3 6.1 23.2-1.4 23.2-13.3v-59c0-8.5-6.9-15.4-15.4-15.4H600.8c-15.7 0-21.3 20.7-7.8 28.7zM435.8 655.4l-100.1 59c-10.3 6.1-23.2-1.4-23.2-13.3v-59c0-8.5 6.9-15.4 15.4-15.4H428c15.7 0 21.3 20.7 7.8 28.7z"  horiz-adv-x="1024" />
      
      <glyph glyph-name="kefu2" unicode="&#59238;" d="M860.5 122.4h-60V399.9c0 159.1-129.4 288.5-288.5 288.5S223.5 559 223.5 399.9v-277.5h-60V399.9c0 47 9.2 92.7 27.4 135.7 17.6 41.5 42.7 78.8 74.7 110.8s69.3 57.1 110.8 74.7c43 18.2 88.6 27.4 135.7 27.4 47 0 92.7-9.2 135.7-27.4 41.5-17.6 78.8-42.7 110.8-74.7s57.1-69.3 74.7-110.8c18.2-43 27.4-88.6 27.4-135.7v-277.5zM719.7 407.1c-16.6 0-30 13.4-30 30 0 71.2-57.9 129.1-129.1 129.1-16.6 0-30 13.4-30 30s13.4 30 30 30c104.3 0 189.1-84.8 189.1-189.1 0-16.5-13.4-30-30-30zM339.3 121.9H163.5V366.5h175.8c37.9 0 68.8-30.9 68.8-68.8v-107c0-37.9-30.9-68.8-68.8-68.8z m-115.8 60h115.8c4.8 0 8.8 3.9 8.8 8.8v107c0 4.8-3.9 8.8-8.8 8.8H223.5v-124.6zM860.5 121.9H684.7c-37.9 0-68.8 30.9-68.8 68.8v107c0 37.9 30.9 68.8 68.8 68.8h175.8v-244.6zM684.7 306.5c-4.8 0-8.8-3.9-8.8-8.8v-107c0-4.8 3.9-8.8 8.8-8.8h115.8V306.5H684.7z"  horiz-adv-x="1024" />
      
      <glyph glyph-name="fuwudingdan" unicode="&#59239;" d="M768.5 683.6h-513c-89 0-161.3-72.4-161.3-161.3v-319.8c0-89 72.4-161.3 161.3-161.3h513c89 0 161.3 72.4 161.3 161.3V522.2c0 89-72.3 161.4-161.3 161.4z m-513-60h513c55.9 0 101.3-45.5 101.3-101.3v-45.6H154.2v45.6c0 55.8 45.4 101.3 101.3 101.3z m513-522.5h-513c-55.9 0-101.3 45.5-101.3 101.3V416.6h715.7v-214.2c-0.1-55.8-45.5-101.3-101.4-101.3zM455.5 340.7h76.2v-76.2h-76.2zM590.3 340.7h76.2v-76.2h-76.2zM725.1 340.7h76.2v-76.2h-76.2z"  horiz-adv-x="1024" />
      
      <glyph glyph-name="fuwuh" unicode="&#59240;" d="M906.5 555.8c-13.7 33.5-34 63.6-60.2 89.3-50.6 49.5-117.7 76.7-189.1 76.7-49.3 0-97-13-139-37.8-42.2 25.6-90.2 39-140 39-71.6 0-138.8-27.9-189.4-78.5-25.6-25.6-45.5-55.6-58.9-89-13-32.3-19.5-66.3-19.3-101.1 0.2-34.4 6.9-67.9 19.9-99.5 13.5-32.7 33.2-62 58.5-86.8 24.2-24.2 236.1-234.5 238.2-236.5 23.8-23.8 55.7-36.9 89.7-36.9s65.9 13.1 89.7 36.8c11.3 11.2 223.6 222 237.8 236.1 26.1 24.7 46.4 53.7 60.5 86.3 13.7 31.7 20.8 65.3 21.1 100 0.4 35.1-6.2 69.3-19.5 101.9z m-463 7.3c-1.4-16.5-15.8-28.8-32.4-27.4-40.5 3.3-70.4-10-91.4-40.7-16.3-23.8-20.7-48.8-20.8-49-2.4-14.7-15.1-25.2-29.6-25.2-1.6 0-3.2 0.1-4.9 0.4-16.4 2.7-27.5 18.1-24.8 34.4 0.6 3.9 6.8 38.9 30.5 73.4 14.7 21.4 33 38.1 54.4 49.4 26.5 14.1 57.3 19.9 91.4 17.1 16.7-1.4 29-15.9 27.6-32.4z"  horiz-adv-x="1024" />
      
      <glyph glyph-name="fuwu" unicode="&#59241;" d="M517-5.3c-34 0-65.9 13.1-89.7 36.9-2.1 2-214 212.4-238.2 236.5-25.3 24.9-45 54.1-58.5 86.8-13 31.6-19.7 65.1-19.9 99.5-0.2 34.8 6.3 68.9 19.3 101.1 13.5 33.5 33.3 63.4 58.9 89 50.6 50.6 117.9 78.5 189.4 78.5 49.8 0 97.7-13.4 140-39 42 24.8 89.6 37.8 139 37.8 71.4 0 138.5-27.3 189.1-76.7 26.2-25.7 46.5-55.7 60.2-89.3 13.3-32.5 19.9-66.8 19.5-101.9-0.4-34.6-7.5-68.3-21.1-100-14-32.6-34.4-61.6-60.5-86.3-14.2-14.1-226.5-224.9-237.8-236.1-23.8-23.7-55.7-36.8-89.7-36.8zM378.3 663c-55.5 0-107.7-21.6-147-60.9-19.9-19.9-35.3-43.1-45.7-69-10.1-25-15.1-51.4-14.9-78.4 0.1-26.6 5.3-52.5 15.4-76.9 10.4-25.2 25.6-47.8 45.2-67l0.2-0.2C255 287 467.4 76.2 469.6 74.1c12.6-12.5 29.4-19.4 47.4-19.4s34.8 6.9 47.3 19.4c11.4 11.3 226.7 225.1 238.1 236.4l0.6 0.6c20.2 19.1 36 41.5 46.8 66.7 10.5 24.3 16 50.2 16.2 76.9 0.3 27-4.8 53.5-15 78.5-10.6 25.9-26.3 49.2-46.7 69.1-39.3 38.4-91.5 59.6-147.1 59.6-44 0-86.2-13.2-122.1-38.2l-17.3-12.1-17.2 12.3c-36 25.6-78.3 39.1-122.3 39.1zM269.4 420.8c-1.6 0-3.2 0.1-4.9 0.4-16.4 2.7-27.5 18.1-24.8 34.4 0.6 3.9 6.8 38.9 30.5 73.4 14.7 21.4 33 38.1 54.4 49.4 26.5 14.1 57.3 19.9 91.4 17.1 16.5-1.4 28.8-15.8 27.4-32.4-1.4-16.5-15.8-28.8-32.4-27.4-40.5 3.3-70.4-10-91.4-40.7-16.3-23.8-20.7-48.8-20.8-49-2.2-14.7-15-25.2-29.4-25.2z"  horiz-adv-x="1024" />
      
      <glyph glyph-name="chongwushouyeh" unicode="&#59227;" d="M512 374c-33.8 0-61.3-27.4-61.3-61.3s27.4-61.3 61.3-61.3h0.1c33.9 0 61.3 27.5 61.3 61.3 0 33.9-27.5 61.3-61.4 61.3zM823 555.8L625 704.3c-67 50.2-159 50.2-226 0L201 555.8c-44.1-33.1-70.1-85-70.1-140.2v-238.7c0-96.8 78.4-175.2 175.2-175.2h411.7c96.8 0 175.2 78.4 175.2 175.2V415.6c0.1 55.2-25.9 107.1-70 140.2z m-311-357c-62.9 0-113.9 51-113.9 113.9s51 113.9 113.9 113.9 113.9-51 113.9-113.9-51-113.9-113.9-113.9z"  horiz-adv-x="1024" />
      
      <glyph glyph-name="chongwushouye" unicode="&#59228;" d="M399 704.3L201 555.8c-44.1-33.1-70.1-85-70.1-140.2v-238.7c0-96.8 78.4-175.2 175.2-175.2h411.7c96.8 0 175.2 78.4 175.2 175.2V415.6c0 55.1-26 107.1-70.1 140.2L625 704.3c-66.9 50.2-159 50.2-226 0z m189.2-49.1l198-148.5c28.7-21.5 45.6-55.3 45.6-91.1v-238.7c0-62.9-51-113.9-113.9-113.9H306.2c-62.9 0-113.9 51-113.9 113.9V415.6c0 35.8 16.9 69.6 45.6 91.1l198 148.5c45.1 33.9 107.2 33.9 152.3 0zM512 426.6c-62.9 0-113.9-51-113.9-113.9s51-113.9 113.9-113.9 113.9 51 113.9 113.9-51 113.9-113.9 113.9z m0-52.6c33.9 0 61.3-27.4 61.3-61.3s-27.4-61.3-61.3-61.3h-0.1c-33.9 0-61.3 27.5-61.3 61.3 0.2 33.9 27.6 61.3 61.4 61.3z"  horiz-adv-x="1024" />
      
      <glyph glyph-name="chongwushangchengh" unicode="&#59229;" d="M905.3 141.2l-63.2 521.9C832.9 739 768.3 796.3 691.9 796.3H332.1c-76.4 0-141-57.2-150.2-133.1l-63.2-521.9c-5.2-43 8.3-86.2 37-118.5 28.7-32.4 70-51 113.2-51h486.2c43.3 0 84.5 18.6 113.2 51 28.7 32.3 42.2 75.5 37 118.4zM532.2 525.3c5.2 13 12.8 24.5 23 34.5s21.7 14.9 34.7 14.6c10.3 0 19.2-3.3 26.8-10 7.5-6.6 12.8-14.5 15.9-23.7 3.1-9.1 4.8-18.7 5.1-28.7 0-12.4-2.6-25.1-7.7-38-5.2-13-12.9-24.4-23.2-34.3-10.3-9.9-22-14.7-34.9-14.4-10 0-18.9 3.3-26.5 10-7.7 6.6-13 14.3-15.9 23-2.9 8.7-4.6 18.4-4.9 29-0.1 12.4 2.5 25 7.6 38z m-142.4 15.5c3.1 9.1 8.6 17 16.4 23.7 7.8 6.6 16.6 10 26.3 10 13 0 24.8-4.9 35.4-14.6s18.3-21.2 23-34.5c4.7-13.3 7.1-25.9 7.1-38 0-10.3-1.5-20-4.4-29-2.9-9-8.2-16.7-15.7-23-7.5-6.3-16.4-9.7-26.8-10-12.7 0-24.3 4.8-34.9 14.4-10.6 9.6-18.4 21-23.2 34.3-4.9 13.3-7.4 26-7.7 38-0.1 10 1.4 19.6 4.5 28.7z m-79.6-178c-6 13.1-9.1 26-9.1 38.7 0 13.6 3.5 25.3 10.4 35.2 6.9 9.9 16.9 14.8 29.9 14.8s25.1-4.6 36.3-13.9c11.2-9.3 19.7-20.6 25.4-33.8 5.8-13.3 8.6-26.1 8.6-38.5 0-13.6-3.5-25.2-10.4-34.9s-16.9-14.7-29.9-14.8c-13-0.1-24.9 4.4-35.8 13.7-10.9 9.1-19.4 20.4-25.4 33.5zM652.5 184c-3.1-5-7.1-8.8-12.2-11.3-5-2.5-10.4-4.3-16.1-5.5-5.8-1.2-12.2-1.6-19.2-1.3-11.5 0-27.4 3.8-47.5 11.3-20.2 7.5-35.7 11.4-46.4 11.5-10.8 0.1-26.8-3.5-48.2-11.1s-38.3-11.3-50.6-11.3c-31 0-46.4 12.4-46.4 37.2 0 14.4 4.7 30.4 14.2 48 9.4 17.5 21.2 33.8 35.4 48.9 14.2 15 30 27.3 47.5 36.7 17.5 9.4 33.7 14.4 48.4 15 20.1 0 41.6-8.2 64.8-24.5 23.1-16.4 42.3-36.3 57.5-59.7 15.2-23.4 23.1-44.9 23.7-64.4-0.2-8-1.8-14.5-4.9-19.5z m60.2 178.8c-6-13.4-14.4-24.6-25.2-33.6-10.8-9-22.6-13.6-35.6-13.7-13-0.1-23 4.8-30.1 14.8-7.1 10-10.8 21.7-11.1 34.9 0 12.4 3 25.2 9.1 38.5 6 13.3 14.5 24.5 25.4 33.8 10.9 9.3 22.9 13.9 35.8 13.9 13 0 22.9-4.9 29.9-14.8 6.9-9.9 10.5-21.6 10.8-35.2 0-12.3-3-25.2-9-38.6z"  horiz-adv-x="1024" />
      
      <glyph glyph-name="chongwushangcheng" unicode="&#59230;" d="M755.1-28.3H268.9c-43.3 0-84.5 18.6-113.2 51-28.7 32.4-42.2 75.6-37 118.5l63.2 521.9c9.2 75.9 73.8 133.1 150.2 133.1h359.8c76.4 0 141-57.2 150.2-133.1l63.2-521.9c5.2-43-8.3-86.2-37-118.5-28.7-32.4-69.9-51-113.2-51z m-423 764.6c-46.1 0-85.1-34.5-90.7-80.3l-63.1-522c-3.1-25.9 5-52 22.3-71.5s42.2-30.8 68.3-30.8h486.2c26.1 0 51 11.2 68.3 30.8 17.3 19.5 25.5 45.6 22.3 71.5l-63.2 521.9c-5.5 45.8-44.5 80.3-90.7 80.3H332.1zM497.9 487.3c0-10.3-1.5-20-4.4-29s-8.2-16.7-15.7-23c-7.5-6.3-16.4-9.7-26.8-10-12.7 0-24.3 4.8-34.9 14.4-10.6 9.6-18.4 21-23.2 34.3-4.9 13.3-7.4 26-7.7 38 0 10 1.5 19.6 4.6 28.7s8.6 17 16.4 23.7 16.6 10 26.3 10c13 0 24.8-4.9 35.4-14.6 10.6-9.7 18.3-21.2 23-34.5 4.7-13.2 7-25.9 7-38z m-86.2-122.1c0-13.6-3.5-25.2-10.4-34.9s-16.9-14.7-29.9-14.8c-13-0.1-24.9 4.4-35.8 13.7-10.9 9.3-19.4 20.5-25.4 33.6-6 13.1-9.1 26-9.1 38.7 0 13.6 3.5 25.3 10.4 35.2s16.9 14.8 29.9 14.8 25.1-4.6 36.3-13.9c11.2-9.3 19.7-20.6 25.4-33.8 5.7-13.4 8.6-26.2 8.6-38.6z m99.5-13.1c20.1 0 41.6-8.2 64.8-24.5 23.1-16.4 42.3-36.3 57.5-59.7 15.2-23.4 23.1-44.9 23.7-64.4 0-8-1.5-14.4-4.6-19.5-3.1-5-7.1-8.8-12.2-11.3-5-2.5-10.4-4.3-16.1-5.5-5.8-1.2-12.2-1.6-19.2-1.3-11.5 0-27.4 3.8-47.5 11.3-20.2 7.5-35.7 11.4-46.4 11.5-10.8 0.1-26.8-3.5-48.2-11.1-21.4-7.5-38.3-11.3-50.6-11.3-31 0-46.4 12.4-46.4 37.2 0 14.4 4.7 30.4 14.2 48 9.4 17.5 21.2 33.8 35.4 48.9 14.2 15 30 27.3 47.5 36.7 17.2 9.4 33.4 14.4 48.1 15z m60.6 73.3c-10 0-18.9 3.3-26.5 10-7.7 6.6-13 14.3-15.9 23-2.9 8.7-4.6 18.4-4.9 29 0 12.4 2.6 25.1 7.7 38s12.8 24.5 23 34.5 21.7 14.9 34.7 14.6c10.3 0 19.2-3.3 26.8-10s12.8-14.5 15.9-23.7c3.1-9.1 4.8-18.7 5.1-28.7 0-12.4-2.6-25.1-7.7-38-5.2-13-12.9-24.4-23.2-34.3-10.4-9.9-22-14.7-35-14.4z m109.3 26.1c13 0 22.9-4.9 29.9-14.8 6.9-9.9 10.5-21.6 10.8-35.2 0-12.4-3-25.3-9.1-38.7-6-13.4-14.4-24.6-25.2-33.6-10.8-9-22.6-13.6-35.6-13.7-13-0.1-23 4.8-30.1 14.8-7.1 10-10.8 21.7-11.1 34.9 0 12.4 3 25.2 9.1 38.5 6 13.3 14.5 24.5 25.4 33.8 10.9 9.3 22.9 14 35.9 14z"  horiz-adv-x="1024" />
      
      <glyph glyph-name="yundian" unicode="&#59231;" d="M726.2 357.9H299.6c-46.7 0-90.9 20.2-121.5 55.5-30.2 34.9-43.7 80.9-37.2 126.3 7.6 52.8 41 97 88.7 118.9 7.3 22.9 20.6 43.4 38.4 58.9 22.5 19.5 51.3 30.3 81.2 30.3 21.7 0 41.5-4.7 60.6-14.7 14.9 18.3 32.7 33.6 52.7 45 28.7 16.5 62.2 25.3 96.7 25.3 43.8 0 87.2-15.4 122.4-43.3 28.7-22.8 50.6-52.9 62.9-86.2 34.7-4 67.1-19.4 92.7-44.4 30.7-30 47.6-70.1 47.6-113 0-20.8-4.8-40-9.5-58.6l-0.7-2.8-1.1-2.4c-26.3-57.6-84.1-94.8-147.3-94.8z m-377 329.9c-31.9 0-58.5-23.3-64.7-56.6-2-10.9-9.8-19.8-20.2-23.4-34.3-11.5-58.7-40.9-63.9-76.7-4.1-28.1 4.4-56.7 23.1-78.4 19.1-22.1 46.9-34.8 76.1-34.8h426.5c39 0 74.6 22.4 91.5 57.2 3.7 14.7 7 28.7 7 41.3 0 54.3-44.2 98.5-98.5 98.5h-3.9c-14.2 0-26.4 9.6-29.6 23.4-14.2 59.9-71.6 105.1-133.5 105.1-48.5 0-90.5-24.1-115.2-66.1-4.4-7.6-12-12.9-20.7-14.5-8.7-1.6-17.6 0.6-24.5 6.1-16.7 13.2-31.4 18.9-49.5 18.9z m-123.7-45.7z m166.7 65.7c0-0.1 0-0.1 0 0 0-0.1 0-0.1 0 0zM417.5-35.5H256.1c-31.7 0-57.6 25.8-57.6 57.6V296.2c0 16.6 13.4 30 30 30s30-13.4 30-30v-271.7h159c16.6 0 30-13.4 30-30s-13.4-30-30-30zM767.9-35.5h-128c-31.7 0-57.6 25.8-57.6 57.6V157.3H447.5v-36.5c0-16.6-13.4-30-30-30s-30 13.4-30 30v39c0 31.7 25.8 57.6 57.6 57.6h139.6c31.7 0 57.6-25.8 57.6-57.6v-135.2h123.1V296.2c0 16.6 13.4 30 30 30s30-13.4 30-30v-274.1c0-31.7-25.8-57.6-57.5-57.6z"  horiz-adv-x="1024" />
      
      <glyph glyph-name="youhuiquan" unicode="&#59232;" d="M852.3 52.8H171.7c-35.5 0-64.5 28.9-64.5 64.5V255l20.1 7c39.6 13.8 66.3 51.3 66.3 93.2 0 42-26.6 79.5-66.3 93.2l-20.1 7V593.3c0 35.5 28.9 64.5 64.5 64.5h680.6c35.5 0 64.5-28.9 64.5-64.5v-137.6l-20.3-6.9c-39.9-13.6-66.8-51.2-66.8-93.4s26.8-79.8 66.8-93.4l20.3-6.9v-137.6c-0.1-35.7-29-64.7-64.5-64.7zM167.3 214v-96.7c0-2.5 2-4.5 4.5-4.5h680.6c2.5 0 4.5 2 4.5 4.5v96.3c-52.9 26.7-87.1 81.2-87.1 141.7 0 60.5 34.2 115 87.1 141.7v96.3c0 2.5-2 4.5-4.5 4.5H171.7c-2.5 0-4.5-2-4.5-4.5v-96.7c52.4-26.8 86.4-81.2 86.4-141.3 0-60.1-33.9-114.5-86.3-141.3zM650.1 460.1h-288c-16.6 0-30 13.4-30 30s13.4 30 30 30h288c16.6 0 30-13.4 30-30s-13.4-30-30-30zM458.7 325.3h-96.6c-16.6 0-30 13.4-30 30s13.4 30 30 30h96.6c16.6 0 30-13.4 30-30s-13.4-30-30-30zM696.2 201.3H359.8c-16.6 0-30 13.4-30 30s13.4 30 30 30h336.3c16.6 0 30-13.4 30-30s-13.4-30-29.9-30z"  horiz-adv-x="1024" />
      
      <glyph glyph-name="didiandingwei" unicode="&#59059;" d="M512 725.333333c117.802667 0 213.333333-94.378667 213.333333-210.816 0-107.733333-71.125333-208.128-213.333333-301.184-142.208 93.013333-213.333333 193.450667-213.333333 301.184C298.666667 630.954667 394.197333 725.333333 512 725.333333z m0-128a85.333333 85.333333 0 1 1 0-170.666666 85.333333 85.333333 0 0 1 0 170.666666zM853.333333 341.333333v-298.666666H170.666667v298.666666h129.024c45.397333-66.56 116.138667-130.56 212.309333-192 96.170667 61.44 166.912 125.44 212.309333 192H853.333333z"  horiz-adv-x="1024" />
      
      <glyph glyph-name="gongnengzonglan" unicode="&#59070;" d="M91.1 732.3c0 22.6 18.3 41 41 41H420c22.6 0 41-18.3 41-41v-287.9c0-22.6-18.3-41-41-41H132.1c-22.6 0-41 18.3-41 41V732.3z m619.3 55.3c16 16 42 16 58 0L972 584c16-16 16-42 0-58L768.4 322.4c-16-16-42-16-58 0L506.8 526c-16 16-16 42 0 58l203.6 203.6zM561.8 246.8c0 22.6 18.3 41 41 41h287.9c22.6 0 41-18.3 41-41v-287.9c0-22.6-18.3-41-41-41H602.8c-22.6 0-41 18.3-41 41V246.8z m-470.7 0c0 22.6 18.3 41 41 41H420c22.6 0 41-18.3 41-41v-287.9c0-22.6-18.3-41-41-41H132.1c-22.6 0-41 18.3-41 41V246.8z"  horiz-adv-x="1024" />
      
      <glyph glyph-name="pinzhixinxi" unicode="&#59517;" d="M455.3 103.9l-235.5 136c-2.9 1.7-6.6 0.7-8.3-2.2l-71.3-123.4c-2-3.5-0.1-7.9 3.7-8.9L269 73c1-0.3 1.9-0.8 2.7-1.5l105-100.8c2.8-2.7 7.5-2.1 9.5 1.3l71.4 123.6c1.6 2.9 0.6 6.6-2.3 8.3zM884.2 114.2l-71.3 123.4c-1.7 2.9-5.4 3.9-8.3 2.2l-235.5-136c-2.9-1.7-3.9-5.4-2.2-8.3L638.2-28c2-3.4 6.6-4.1 9.5-1.3l105 100.8c0.8 0.7 1.7 1.2 2.7 1.5l125.1 32.4c3.8 0.9 5.7 5.3 3.7 8.8zM797.7 300.6v306c0 6.7-3.6 13-9.4 16.3l-265 153c-5.8 3.4-13 3.4-18.9 0l-265-153c-5.8-3.4-9.4-9.6-9.4-16.3v-306c0-6.7 3.6-13 9.4-16.3l265-153c5.8-3.4 13-3.4 18.9 0l265 153c5.8 3.3 9.4 9.5 9.4 16.3z m-125 225.5L526.3 315.7c-7.3-10.4-22.8-10.3-29.9 0.2L354.7 526.2c-9.3 13.7-5.6 32.4 8.1 41.6 13.7 9.3 32.4 5.6 41.6-8.1l104.1-154.5c1.7-2.5 5.2-2.5 6.9-0.1l107.9 155.2c9.5 13.6 28.2 17 41.8 7.5 13.7-9.4 17-28.1 7.6-41.7z"  horiz-adv-x="1024" />
      
      <glyph glyph-name="chechuang" unicode="&#58884;" d="M962 26v60H722v-60H302v60H62v-60H0v-154h1024v154z m0 0M62 266h900v-120H62z m0 0M332 716h-90V776h305.524c12.43-34.844 45.414-60 84.476-60h120c49.626 0 90 40.376 90 90S801.624 896 752 896h-120c-39.062 0-72.046-25.156-84.476-60H182v-120H122v-390h210z m0 0M392 716v-360h90v60h60v60h-60v120h60v60h-60V716z m0 0M0 656h62v-240H0z m0 0M722 656v-90h-120v-60h120v-180h240v132.6l-60 60V656z m0 0"  horiz-adv-x="1024" />
      
      <glyph glyph-name="zhuanshi1" unicode="&#59243;" d="M694.178909 655.685818c12.381091-21.410909 43.333818-21.410909 55.761455 0l88.250181 152.948364a32.256 32.256 0 0 1-0.279272 32.674909l-2.932364 4.933818a32.302545 32.302545 0 0 1-27.648 15.639273l-176.500364-0.046546a32.209455 32.209455 0 0 1-27.834181-48.314181l91.182545-157.835637z m290.816-59.392L916.852364 709.818182a32.209455 32.209455 0 0 1-55.482182-0.465455L795.787636 595.781818a32.209455 32.209455 0 0 1 27.927273-48.314182l133.678546 0.046546c25.041455 0 40.494545 27.322182 27.601454 48.779636zM279.831273 655.592727c12.427636-21.410909 43.380364-21.410909 55.808 0l91.089454 157.928728a32.209455 32.209455 0 0 1-27.927272 48.267636H216.576a32.209455 32.209455 0 0 1-27.880727-48.360727l91.229091-157.789091zM206.196364 547.374545a32.209455 32.209455 0 0 1 27.834181 48.267637l-68.421818 118.504727a32.162909 32.162909 0 0 1-55.482182 0.465455L39.005091 596.061091A32.209455 32.209455 0 0 1 66.56 547.374545H206.196364zM943.941818 477.835636l-147.083636-0.046545h-149.690182l-264.610909-0.093091H232.913455l-152.157091-0.046545a32.162909 32.162909 0 0 1-25.646546-51.61891l434.129455-507.112727a32.209455 32.209455 0 0 1 51.479272 0.186182l429.102546 507.298909a32.209455 32.209455 0 0 1-25.832727 51.432727zM409.367273 547.374545l211.083636 0.093091a32.209455 32.209455 0 0 1 27.880727 48.267637L542.72 778.519273a32.209455 32.209455 0 0 1-55.761455 0L381.486545 595.688727a32.209455 32.209455 0 0 1 27.927273-48.314182z"  horiz-adv-x="1024" />
      
      <glyph glyph-name="tianjia" unicode="&#59069;" d="M520.5-104.8c-63.1 0-124.4 12.4-182.1 36.8-55.7 23.6-105.7 57.3-148.7 100.2-43 43-76.7 93-100.2 148.7-24.4 57.7-36.8 119-36.8 182.1 0 63.1 12.4 124.4 36.8 182.1 23.6 55.7 57.3 105.7 100.2 148.7s93 76.7 148.7 100.2c57.7 24.4 119 36.8 182.1 36.8 63.1 0 124.4-12.4 182.1-36.8 55.7-23.6 105.7-57.3 148.7-100.2 43-43 76.7-93 100.2-148.7 24.4-57.7 36.8-119 36.8-182.1 0-63.1-12.4-124.4-36.8-182.1-23.6-55.7-57.3-105.7-100.2-148.7-43-43-93-76.7-148.7-100.2-57.7-24.4-118.9-36.8-182.1-36.8z m0 875.6c-224.9 0-407.8-182.9-407.8-407.8s182.9-407.8 407.8-407.8S928.3 138.1 928.3 363 745.4 770.8 520.5 770.8zM775 333H285c-16.6 0-30 13.4-30 30s13.4 30 30 30h490c16.6 0 30-13.4 30-30s-13.4-30-30-30zM530 88c-16.6 0-30 13.4-30 30V608c0 16.6 13.4 30 30 30s30-13.4 30-30v-490c0-16.5-13.4-30-30-30z"  horiz-adv-x="1024" />
      
      <glyph glyph-name="jurassic_folder" unicode="&#59226;" d="M120 552h291.6l112 112H736v-224h56V720H500.4l-112-112H64v-560l56 130.6zM792 440H232L120 178.60000000000002 64 48h728l168 392z"  horiz-adv-x="1024" />
      
      <glyph glyph-name="xianhuo2" unicode="&#58886;" d="M745.441727 205.148589c-5.520737 0-10.974959-0.226151-16.35448-0.656963 0.00614-0.36225 0.016373-0.728594 0.016373-1.088798 0-47.125297-22.292726-91.183745-62.780859-124.059504-23.296589-18.916838-51.052746-32.801057-81.292468-40.989553 17.916045-58.409294 82.931804-101.689007 160.405293-101.689007 91.301426 0 165.317163 60.098773 165.317163 134.23833C910.75275 145.045723 836.737012 205.148589 745.441727 205.148589L745.441727 205.148589M745.441727 205.148589 745.441727 205.148589zM851.986321 607.529983c-5.064342 28.54001-38.640042 79.539544-88.781022 88.23867-30.442336 5.282307-49.103348 10.743692-63.219857-7.795547l50.868551-460.770222c87.089497-1.648546 159.356404-54.096059 175.705767-123.076106l0.147356 0-72.356958 494.230288L851.986321 607.529983zM831.471079 613.860155 831.471079 613.860155zM294.894334 203.402829c0 0.360204 0.016373 0.726547 0.016373 1.094938-5.373381 0.425695-10.832719 0.651846-16.34834 0.651846-91.300402 0-165.311023-60.102866-165.311023-134.242424 0-74.143651 74.011644-134.236284 165.311023-134.236284 77.474512 0 142.489248 43.279712 160.406317 101.689007-30.234605 8.188496-57.995879 22.066575-81.288374 40.989553C317.193199 112.2242 294.894334 156.277532 294.894334 203.402829L294.894334 203.402829M294.894334 203.402829 294.894334 203.402829zM273.1501 227.201861l47.993061 433.385525c-23.185049 4.992711-27.621081 6.365988-58.521858 6.365988-46.001707 0-87.207178-34.302247-92.27766-62.84328l-73.05076-499.983315 0.145309 0C113.787556 173.105802 186.058556 225.551268 273.1501 227.201861L273.1501 227.201861M273.1501 227.201861 273.1501 227.201861zM704.015222 210.463642c0.00614 0.297782 0.016373 0.599657 0.016373 0.89744 0 7.058766-0.584308 14.002922-1.697665 20.813025-8.416693 51.520397-47.617507 95.14087-102.103446 118.27373-26.728758 11.344373-57.122999 17.770735-89.367377 17.770735-38.763862 0-74.856895-9.280364-105.105826-25.238824-47.142693-24.87862-80.07678-65.99711-86.782505-113.592105-0.836041-5.91778-1.279133-11.92868-1.279133-18.032702 0-1.520633 0.036839-3.039219 0.089028-4.547573 2.172479-61.991889 48.64593-114.971521 114.617457-138.818649 23.976064-8.66638 50.52779-13.486152 78.462003-13.486152 21.614274 0 42.398646 2.882654 61.806671 8.199753C648.708592 83.54502 703.539384 141.77933 704.015222 210.463642L704.015222 210.463642M704.015222 210.463642 704.015222 210.463642zM299.218826 250.179179c11.830443 49.915853 50.16554 92.421946 101.82613 118.009717 32.967856 16.325827 71.353095 25.765827 111.74913 25.854854 33.04972-0.068562 64.352657-6.407943 92.303242-17.649985 59.778478-24.028253 104.20327-70.50682 117.402897-126.214587l0.171915 0-61.941747 380.747677-18.830881 115.981525c-5.922896 33.350572-76.146261 85.99456-129.899512 85.99456-53.759391 0-118.239961-53.28253-124.444267-86.514399l-26.360368-164.912957-62.142316-331.297428L299.218826 250.178155 299.218826 250.179179M299.218826 250.179179 299.218826 250.179179z"  horiz-adv-x="1024" />
      
      <glyph glyph-name="qita" unicode="&#58929;" d="M512 830.688505c-246.699682 0-446.688505-199.989847-446.688505-446.688505s199.989847-446.688505 446.688505-446.688505S958.688505 137.300318 958.688505 384 758.698658 830.688505 512 830.688505zM309.953308 328.744535c-30.517037 0-55.255465 24.738427-55.255465 55.255465s24.738427 55.255465 55.255465 55.255465 55.255465-24.738427 55.255465-55.255465S340.470345 328.744535 309.953308 328.744535zM512 328.744535c-30.517037 0-55.255465 24.738427-55.255465 55.255465s24.738427 55.255465 55.255465 55.255465c30.517037 0 55.255465-24.738427 55.255465-55.255465S542.517037 328.744535 512 328.744535zM714.046692 328.744535c-30.517037 0-55.255465 24.738427-55.255465 55.255465s24.738427 55.255465 55.255465 55.255465 55.255465-24.738427 55.255465-55.255465S744.56373 328.744535 714.046692 328.744535z"  horiz-adv-x="1024" />
      
      <glyph glyph-name="jiyou" unicode="&#58930;" d="M358.464 738.56V806.656a24.96 24.96 0 0 1-24.96 24.96H163.2a24.96 24.96 0 0 1-24.96-24.96v-55.104l0.064-2.176 0.128-10.88v-701.184a30.08 30.08 0 0 1-0.192-3.392v-78.464a24.96 24.96 0 0 1 24.96-24.896H860.736a24.96 24.96 0 0 1 25.024 24.896V33.92a32.384 32.384 0 0 1-0.384 4.416c0.192 4.032 0.384 8.32 0.384 12.672v516.48s-3.2 30.016-19.072 41.152c-15.744 11.264-275.392 169.28-275.392 169.28s-37.376 33.6-60.16 19.008c-22.848-14.4-172.928-114.304-172.928-114.304l0.128 55.936h0.128z m196.864-464.384a41.152 41.152 0 0 0-48.96 31.808c-4.672 22.336 18.688 45.632 23.04 90.432 4.416 0 52.928-51.072 57.664-73.344a41.152 41.152 0 0 0-31.744-48.896z m1.024 412.8L787.2 549.056v-117.632L483.2 626.752l73.152 60.224z m-161.28-384.448c8-1.664 77.824-114.816 77.824-157.76a77.76 77.76 0 1 0-155.648 0c0.064 42.944 52.352 76.928 77.824 157.76z"  horiz-adv-x="1024" />
      
      <glyph glyph-name="zhongjinshu" unicode="&#58889;" d="M712.13 427.521c12.73 22.653 2.16 45.748-0.393 50.622s-79.754 152.163-79.754 152.163-13.718 25.27-39.727 25.27H514.23h-78.026c-26.009 0-39.728-25.27-39.728-25.27l-79.754-152.163c-2.555-4.873-13.122-27.969-0.394-50.622s42.107-22.685 42.107-22.685H670.024s29.38 0.032 42.107 22.685zM951.119 193.664l-79.755 152.163s-13.72 25.27-39.729 25.27H753.61h-78.027c-26.009 0-39.727-25.27-39.727-25.27l-79.754-152.163c-2.555-4.873-13.123-27.969-0.394-50.622 12.728-22.653 42.107-22.686 42.107-22.686h311.589s29.378 0.033 42.107 22.686c12.728 22.653 2.162 45.748-0.392 50.622zM388.143 345.827s-13.72 25.27-39.728 25.27h-78.026-78.026c-26.008 0-39.728-25.27-39.728-25.27L72.88 193.664c-2.555-4.874-13.121-27.969-0.394-50.622s42.107-22.686 42.107-22.686h311.589s29.38 0.033 42.107 22.686 2.16 45.748-0.394 50.622l-79.752 152.163z"  horiz-adv-x="1024" />
      
      <glyph glyph-name="PP" unicode="&#59068;" d="M718.12987 692.08658c-26.597403 22.164502-62.060606 31.030303-101.95671 31.030303H336.900433L195.047619 75.91342h57.627706l-13.298702-62.060606h146.285715l53.194805 243.809524h155.151515c190.614719 0 274.839827 128.554113 274.839827 248.242424 4.4329 97.52381-62.060606 172.883117-150.718615 186.181818zM429.991342 625.593074h150.718615c31.030303 0 53.194805-13.298701 70.926407-31.030303H483.186147l-39.896104-177.316018H385.662338l44.329004 208.346321zM673.800866 541.367965c0-66.493506-48.761905-119.688312-132.987013-119.688311h-62.060606l31.030303 141.852814h137.419913c8.865801 0 17.731602 0 26.597403-4.432901V541.367965z m-75.359308-248.242424H412.25974l-53.194805-243.809524H279.272727l4.432901 26.597403H310.30303L363.497835 319.722944H531.948052c195.047619 0 261.541126 132.987013 261.541125 230.510822 0 31.030303-8.865801 62.060606-22.164502 88.658009 44.329004-26.597403 70.926407-75.359307 70.926407-132.987013 0-79.792208-53.194805-212.779221-243.809524-212.779221z"  horiz-adv-x="1024" />
      
      <glyph glyph-name="yanjing" unicode="&#58909;" d="M520.832 139.264c-88.128 0-170.176 43.648-219.584 116.736a26.4512 26.4512 0 0 0 7.104 36.736c12.16 8.192 28.608 4.992 36.8-7.104 39.552-58.496 105.216-93.44 175.68-93.44 61.44 0 119.744 26.624 160.064 73.088a26.464 26.464 0 0 0 37.376 2.624c11.072-9.6 12.224-26.304 2.624-37.376a264.8832 264.8832 0 0 0-200.064-91.264zM44.16 267.84a26.5152 26.5152 0 0 0-25.6 33.28l105.92 399.168a26.368 26.368 0 0 0 20.288 19.136l105.92 21.568c14.336 2.944 28.288-6.336 31.232-20.672 2.944-14.336-6.336-28.288-20.672-31.232l-89.856-18.304L69.76 287.552a26.6048 26.6048 0 0 0-25.6-19.712zM988.672 267.84c-11.712 0-22.4 7.808-25.6 19.712l-101.696 383.296-89.856 18.304a26.4704 26.4704 0 0 0-20.672 31.232 26.4704 26.4704 0 0 0 31.232 20.672l105.92-21.568a26.368 26.368 0 0 0 20.288-19.136l105.92-399.168c3.776-14.144-4.672-28.608-18.816-32.384-2.176-0.64-4.48-0.96-6.72-0.96zM984.96 32.448H630.464c-21.568 0-39.04 17.472-39.04 39.04v222.08c0 21.568 17.472 39.04 39.04 39.04h354.496c21.568 0 39.04-17.472 39.04-39.04v-222.08c0-21.568-17.472-39.04-39.04-39.04zM393.536 32.448H39.04c-21.568 0-39.04 17.472-39.04 39.04v222.08c0 21.568 17.472 39.04 39.04 39.04h354.496c21.568 0 39.04-17.472 39.04-39.04v-222.08c0-21.568-17.472-39.04-39.04-39.04z"  horiz-adv-x="1024" />
      
      <glyph glyph-name="kuaisujiaohuo" unicode="&#59121;" d="M961.536 728.064L545.792 883.712c-10.752 4.096-22.016 6.144-33.28 6.144s-23.04-2.048-33.792-6.144L62.464 727.552C24.576 713.216 0 677.376 0 637.44v-433.152c0-35.328 19.456-68.096 50.688-84.48l417.792-224.256c14.336-7.68 29.696-11.264 45.568-11.264 14.848 0 29.184 3.584 43.008 10.24l414.208 207.36c32.256 16.384 53.248 49.664 53.248 86.016v450.56c-0.512 39.936-25.6 75.776-62.976 89.6z m-460.8 95.232c3.584 1.536 7.168 2.048 11.264 2.048s7.68-0.512 11.264-2.048l365.568-136.192c10.752-4.096 10.24-18.944 0-22.528l-116.736-41.984c-3.584-1.536-7.68-1.024-11.264 0.512l-368.64 152.064c-3.584 1.536-3.072 6.144 0 7.168l108.544 40.96z m-20.992-281.6l-343.552 122.88c-10.752 3.584-10.752 18.432 0 22.528l153.088 57.344c3.584 1.536 8.192 1.536 11.776 0l365.568-151.552c3.584-1.536 3.072-6.144 0-7.68l-122.368-43.52c-20.992-7.68-43.52-7.68-64.512 0z m480.256-354.304c0-12.288-6.656-23.04-17.92-28.672l-363.52-181.76c-15.872-8.192-34.816 3.584-34.816 21.504V439.808c0 20.48 12.8 38.4 31.744 45.056l138.752 49.664c2.56 1.024 5.12-1.024 5.12-3.584V332.8c0-6.144 6.144-9.728 11.776-7.168l43.52 22.016c5.632 2.56 8.704 8.192 8.704 14.336V547.84c0 6.656 4.096 12.8 10.752 14.848l133.12 47.616c15.36 5.632 32.256-6.144 32.256-22.528l0.512-400.384z"  horiz-adv-x="1024" />
      
      <glyph glyph-name="gengduo" unicode="&#59129;" d="M797 526.3H227c-16.6 0-30 13.4-30 30s13.4 30 30 30h570c16.6 0 30-13.4 30-30s-13.4-30-30-30zM797 354H227c-16.6 0-30 13.4-30 30s13.4 30 30 30h570c16.6 0 30-13.4 30-30s-13.4-30-30-30zM797 181.7H227c-16.6 0-30 13.4-30 30s13.4 30 30 30h570c16.6 0 30-13.4 30-30s-13.4-30-30-30z"  horiz-adv-x="1024" />
      
      <glyph glyph-name="shouyeh" unicode="&#59188;" d="M760.4 636.2l-218 214.1c-16.8 16.5-43.8 16.5-60.7 0l-218-214.1L90.8 466.5c-27.7-27.2-8.4-74.2 30.3-74.2 23.9 0 43.3-19.4 43.3-43.3v-339c0-57.8 46.8-104.6 104.6-104.6h33.7c57.8 0 104.6 46.8 104.6 104.6v18c0 57.8 46.8 104.6 104.6 104.6S616.5 85.8 616.5 28v-18c0-57.8 46.8-104.6 104.6-104.6h33.7c57.8 0 104.6 46.8 104.6 104.6V349c0 23.9 19.4 43.3 43.3 43.3 38.8 0 58 47 30.3 74.2L760.4 636.2z"  horiz-adv-x="1024" />
      
      <glyph glyph-name="gerenzhongxin1" unicode="&#59224;" d="M512.1 393.9c105.4 0 191.1 85.7 191.1 191.1s-85.7 191.1-191.1 191.1S321 690.4 321 585s85.8-191.1 191.1-191.1z m0 322.2c72.3 0 131.1-58.8 131.1-131.1s-58.8-131.1-131.1-131.1S381 512.7 381 585s58.8 131.1 131.1 131.1zM897.6 214.4c-51.4 51.4-119.8 79.7-192.5 79.7H324.7c-72.7 0-141.1-28.3-192.5-79.7S52.5 94.6 52.5 21.9c0-16.6 13.4-30 30-30s30 13.4 30 30c0 117 95.2 212.2 212.2 212.2H705c117 0 212.2-95.2 212.2-212.2 0-16.6 13.4-30 30-30s30 13.4 30 30c0.1 72.7-28.2 141.1-79.6 192.5z"  horiz-adv-x="1024" />
      
      <glyph glyph-name="xuanxiangyou" unicode="&#59032;" d="M914 676H110c-16.6 0-30 13.4-30 30s13.4 30 30 30h804c16.6 0 30-13.4 30-30s-13.4-30-30-30zM632 380H110c-16.6 0-30 13.4-30 30s13.4 30 30 30h522c16.6 0 30-13.4 30-30s-13.4-30-30-30zM914 90H110c-16.6 0-30 13.4-30 30s13.4 30 30 30h804c16.6 0 30-13.4 30-30s-13.4-30-30-30zM910.9 433.6l-102.6 93.3c-8.1 7.4-21.1 1.6-21.1-9.3v-186.7c0-11 13-16.7 21.1-9.3l102.6 93.3c5.5 5 5.5 13.7 0 18.7z"  horiz-adv-x="1024" />
      
      <glyph glyph-name="xuanxiangzuo" unicode="&#59034;" d="M110 676h804c16.6 0 30 13.4 30 30s-13.4 30-30 30H110c-16.6 0-30-13.4-30-30s13.4-30 30-30zM392 380h522c16.6 0 30 13.4 30 30s-13.4 30-30 30H392c-16.6 0-30-13.4-30-30s13.4-30 30-30zM110 90h804c16.6 0 30 13.4 30 30s-13.4 30-30 30H110c-16.6 0-30-13.4-30-30s13.4-30 30-30zM113.1 433.6l102.6 93.3c8.1 7.4 21.1 1.6 21.1-9.3v-186.7c0-11-13-16.7-21.1-9.3l-102.6 93.3c-5.5 5-5.5 13.7 0 18.7z"  horiz-adv-x="1024" />
      
      <glyph glyph-name="jixiebi_1" unicode="&#59072;" d="M555.325105 689.242349l38.36122-57.01198-89.862748-70.470197c-1.801494 3.814928-3.602988 7.205975-5.08657 10.597022s-3.602988 6.464184-4.66269 8.159707c-2.437315 4.132839-5.086571 8.795528-8.371648 13.776129l-1.483583 2.225375c-1.165672 1.801494-2.437315 3.708958-3.708957 5.404481-2.543285 3.708958-5.722392 8.159707-9.43135 12.716427v0.635821c-1.271643 1.589553-3.285077 4.132839-5.828362 6.994035s-5.828362 6.676124-8.795529 9.85523l99.823949 57.011979m23.101508 98.552306l-264.925554-150.901595c5.616422-1.801494 11.126873-3.814928 16.637325-6.146273l4.55672-2.119404c4.132839-1.801494 8.053737-3.708958 11.974635-5.828363l5.510451-3.073136c3.602988-2.013434 7.100005-4.238809 10.597022-6.464184l5.192541-3.497017c3.708958-2.437315 7.417916-5.298511 10.597022-8.159707 1.059702-0.953732 2.331345-1.695524 3.391047-2.649255 4.76866-3.814928 9.113439-7.947767 13.458219-12.186576a27.234347 27.234347 0 0 0 2.967166-3.073136c3.179107-3.285077 6.252243-6.782094 9.219409-10.597023 1.483583-1.589553 2.755226-3.285077 4.026869-4.87463s4.87463-6.464184 7.205975-9.74926 2.331345-3.602988 3.602987-5.298511c2.331345-3.708958 4.55672-7.417916 6.782094-11.232844a50.547796 50.547796 0 0 0 2.649256-4.556719 177.712062 177.712062 0 0 0 7.841796-16.319414 16.213444 16.213444 0 0 0 1.165673-2.861196c2.013434-4.76866 3.708958-9.64329 5.298511-14.517921l1.801493-5.934332c1.059702-4.132839 2.119404-8.159707 3.073137-12.292546l1.483583-6.570153a109.043358 109.043358 0 0 0 2.013434-12.928367 55.316456 55.316456 0 0 0 0.741792-6.040303A190.746399 190.746399 0 0 0 457.09071 441.06009v-10.597022l236.737474 185.977738-115.401571 171.353849zM302.056275 571.297492H309.26225l3.814928-0.635821 4.76866-0.741792h0.847762l5.934333-1.377613h1.907464l4.556719-1.695523 5.192541-1.801494 4.9806-2.225375 3.920899-1.907464 2.967166-1.801494 4.76866-2.755225 3.179106-2.331345 4.45075-3.285077 2.543285-2.225375 5.086571-4.556719 2.755225-2.967166 3.179107-3.391048c1.059702-1.483583 2.013434-2.861196 3.073137-4.132838l0.847761-1.059702 1.483583-1.801494c0.635821-1.271643 1.377613-2.437315 2.119405-3.708958l1.695523-2.543285c0-0.635821 0.741792-1.271643 1.165673-1.801494 1.059702-2.119404 2.013434-4.238809 3.073136-6.146273l0.741792-1.483583 0.847762-1.695523v-0.953732l1.059702-2.861196c0.635821-1.907464 1.377613-3.814928 2.225374-5.828363v-1.483583c0-1.059702 0-2.225375 0.741792-3.285077s0.953732-3.602988 1.377613-5.404481a101.837383 101.837383 0 0 0 1.589553-17.379116 127.906057 127.906057 0 0 0-1.907464-16.425385 100.45977 100.45977 0 0 0-5.192541-19.28658 96.750812 96.750812 0 0 0-90.074688-61.568699 108.725447 108.725447 0 0 0-22.041806 2.437315 96.962753 96.962753 0 0 0 17.379116 190.746399h6.782094m-2.119404 74.179155H298.135377a62.840341 62.840341 0 0 0-6.252243-0.741791 171.141908 171.141908 0 0 1-30.201513-337.727096 176.122508 176.122508 0 0 1 38.14928-4.238809 170.188176 170.188176 0 0 1 158.955332 108.407537 163.723992 163.723992 0 0 1 9.43135 34.758232 151.431447 151.431447 0 0 1-0.529851 62.20452l-1.695524 6.252243a89.226927 89.226927 0 0 1-2.543285 10.597022c-0.847762 2.543285-2.013434 5.086571-2.861196 7.629856s-1.801494 5.404481-2.967166 8.053737-2.543285 5.192541-3.920899 7.947767-2.225375 4.76866-3.391047 6.888064-3.920898 6.570154-5.934332 9.855231a43.553761 43.553761 0 0 1-2.543285 4.132839A69.940346 69.940346 0 0 1 435.896665 577.761675l-3.497017 4.76866c-2.331345 2.861196-4.87463 5.510452-7.417916 8.265678s-2.331345 2.649256-3.602987 3.814928c-2.967166 2.861196-6.040303 5.616422-9.113439 8.265677a36.771667 36.771667 0 0 1-3.179107 2.861196c-3.179107 2.755226-6.782094 5.298511-10.597022 7.629856l-3.073136 2.331345c-3.391047 2.225375-7.100005 4.450749-10.597023 6.464183a41.010476 41.010476 0 0 0-3.602987 2.225375c-3.708958 1.801494-7.417916 3.708958-11.338814 5.404481a39.526893 39.526893 0 0 0-3.708958 1.695524c-3.814928 1.695524-7.735826 2.967166-11.762694 4.344779a21.194044 21.194044 0 0 1-3.920898 1.483583 91.558271 91.558271 0 0 1-10.597022 2.861196c-1.907464 0-3.602988 1.059702-5.404482 1.377613s-6.570154 1.059702-9.85523 1.483583a51.077647 51.077647 0 0 1-7.205975 1.271643h-8.795529c-2.861196 0-5.722392 0.529851-8.583588 0.529851zM432.293678 344.627188l115.507541-259.627043H407.178735l-90.180658 203.038945 5.616421 1.377613h1.377613c2.119404 0 5.086571 1.271643 8.583588 2.437315s6.464184 1.801494 10.597022 3.073136h1.271643c2.543285 0.847762 5.828362 2.013434 9.74926 3.602988l1.695524 0.635821 7.417915 2.861196h0.635822c2.543285 1.059702 5.828362 2.543285 9.74926 4.450749h0.847762c2.331345 1.165672 5.722392 2.755226 9.74926 4.980601l2.437315 1.271642 2.119405 1.059703 3.814928 2.119404 7.417915 4.344779 2.543286 1.695524 5.934332 3.708957 0.847762 0.635822c3.073136 2.013434 6.040303 4.026868 8.901498 6.146273l1.165673 0.847761 2.331345 1.695524 3.285077 2.331345 2.013434 1.589553 5.510451 4.450749m17.379117 144.331442c-2.225375-5.086571-4.66269-10.597022-7.311946-15.047771 0-0.953732-1.059702-1.801494-1.589553-2.755226-2.119404-3.920898-4.450749-7.947767-6.676124-11.762695-1.165672-1.589553-2.331345-3.285077-3.285077-4.87463s-3.814928-6.040303-5.934332-8.901498l-3.920898-5.298512c-2.013434-2.543285-3.920898-5.086571-6.040303-7.629855l-4.66269-4.980601c-2.119404-2.437315-4.026868-4.76866-6.146273-6.888064l-4.9806-4.980601c-2.119404-2.119404-4.450749-4.132839-6.570154-6.146273l-5.404481-4.556719-6.676124-5.404481-5.722392-4.132839-7.100005-4.9806-5.828362-3.708958-7.417915-4.344779-6.252244-3.285077c-2.437315-1.483583-5.086571-2.543285-7.629855-3.814928s-4.344779-2.013434-6.464184-2.967166l-7.947767-3.073137-6.464183-2.331345-8.477618-2.543285c-2.119404-0.741792-4.238809-1.271643-6.358213-1.801494s-6.146273-1.483583-9.219409-2.013434l-6.040303-1.271643-10.597022-1.271642h-5.192541c-5.298511 0-10.597022-0.741792-15.895533-0.741792s-10.597022 0-15.259712 0.529851l-4.76866 0.635822c-3.391047 0-6.888064 0.635821-10.597022 1.165672l-5.722392 1.165673-8.477618 1.483583-6.040303 1.589553a42.91794 42.91794 0 0 0-4.9806 1.271643L358.962284 10.82099h303.074834l-211.940443 476.865997zM744.905831-42.164121a90.498569 90.498569 0 0 0 60.085116-22.253746h-582.836219a90.498569 90.498569 0 0 0 60.085116 22.253746h462.665987m0 63.582133H282.345814C199.583071 21.418012 132.18601-42.905912 132.18601-121.641787v-6.252243h762.985595V-121.641787c0 78.841845-67.503031 143.165769-150.265774 143.16577zM756.032705 636.045297a30.837334 30.837334 0 0 0-9.21941 1.377613L637.240086 670.9095a31.791066 31.791066 0 0 0-22.465687 32.850769l9.64329 124.30307a31.791066 31.791066 0 0 0 21.194045 27.764198L760.377484 893.976817a31.791066 31.791066 0 1 0 20.028371-60.297057l-94.631407-31.791066-6.146273-77.570202 66.231388-20.240312 72.589602 80.643338a31.791066 31.791066 0 0 0 47.156749-42.388088l-86.04782-95.3732a31.791066 31.791066 0 0 0-23.525389-10.914933z"  horiz-adv-x="1024" />
      
      <glyph glyph-name="jixiebi" unicode="&#59305;" d="M1132.456574 641.866096l-88.999209-81.340281a42.595112 42.595112 0 0 0-48.329069-6.389266l-59.182631 30.799542-194.463067-30.676672q-20.150764-48.902465-66.677733-78.923827l-187.090837-121.068413 326.630785-391.014934h215.678709a45.871659 45.871659 0 0 0 46.1174-45.625918A45.871659 45.871659 0 0 0 1030.023522-127.99959H46.1174A45.871659 45.871659 0 0 0 0-82.373673a45.871659 45.871659 0 0 0 46.1174 45.625918H323.96859l-237.836359 307.749682a182.135059 182.135059 0 0 0-24.369319 31.495808v0.081914C5.897785 394.282009 42.185543 513.589279 139.908559 559.583808l344.03744 211.746853q66.022423 40.752054 140.973437 20.191721 19.986937-5.406303 37.065939-14.212022l208.306478 32.847384L942.089191 883.224743a42.595112 42.595112 0 0 0 47.960457 8.969548l110.214852-50.049257c21.215642-9.624857 30.553801-34.485658 20.806073-55.496515-9.747727-20.969901-34.813312-30.18519-56.110868-20.560333l-82.978554 37.721248-39.605262-40.301529 17.693354-96.576224 47.960457-24.860801 67.128258 61.353344a42.595112 42.595112 0 0 0 60.411336-1.679231c16.096037-17.242829 14.703505-44.233385-3.071763-59.756027v-0.081913zM440.122183-36.747755h254.587705l-284.650025 340.842807-80.029661-51.728487a183.650462 183.650462 0 0 0-85.763619-35.632449l195.8556-253.399957v-0.081914z m313.442682 685.330772l112.918003 17.775268-9.051462 49.271076-119.102485-18.758231q11.386001-23.754966 15.235944-48.329069z m-324.910597-223.624336l195.691772 126.720457q27.441082 17.734311 35.75532 49.066292 8.355195 31.331981-6.635008 60.083682-17.038045 32.847384-52.998148 42.717982-36.042018 9.870598-67.824524-9.665814L306.684804 554.791858c29.284139-15.973167 53.735372-39.523349 70.445762-68.111222l51.482745-61.599084v-0.081914z m-129.915091 12.368965l0.614353 0.532439q-6.307353 11.631742-16.505606 21.707124-26.621945 26.335247-64.179365 26.335247-18.307707 0-33.994176-6.143525l-25.679937-15.80934-4.587166-4.341425q-26.621945-26.335247-26.621945-63.605969 0-22.853916 9.993468-41.653105l18.061966-23.263484q26.130463-24.983671 62.82779-24.983671 37.680291 0 64.179365 26.335247 26.580988 26.335247 26.580988 63.565013 0 21.092772-8.437109 38.663255l-2.334539 2.662194h0.081913z"  horiz-adv-x="1146" />
      
      <glyph glyph-name="zhongzhi" unicode="&#59067;" d="M739.5 186.6c-10.4 0-20.5 5.4-26.1 15.1-8.2 14.4-3.3 32.7 11.1 40.9L906.8 347c14.4 8.2 32.7 3.3 40.9-11.1 8.2-14.4 3.3-32.7-11.1-40.9L754.4 190.5c-4.7-2.7-9.8-3.9-14.9-3.9zM117.8 436c-10.4 0-20.5 5.4-26.1 15.1-8.2 14.4-3.3 32.7 11.1 40.9L285 596.4c14.4 8.2 32.7 3.3 40.9-11.1 8.2-14.4 3.3-32.7-11.1-40.9L132.7 440c-4.7-2.7-9.8-4-14.9-4zM520.9-56.8c-53.5 0-105.8 9.5-155.5 28.2-48 18.1-92.1 44.2-131.2 77.8-78.9 67.6-131.5 161-148.2 262.9-2.9 17.6 9 34.1 26.6 37 17.6 2.9 34.1-9 37-26.6 29.9-182.4 186.1-314.9 371.3-314.9 185.7 0 341.9 132.8 371.4 315.8 2.8 17.6 19.4 29.5 37 26.7 17.6-2.8 29.5-19.4 26.7-37-16.5-102.1-69.1-195.8-148-263.6-39.1-33.6-83.3-59.8-131.3-78-49.8-18.8-102.2-28.3-155.8-28.3zM121.6 438c-2.2 0-4.5 0.2-6.8 0.7-17.5 3.8-28.5 20.9-24.8 38.3 20.9 97 74.9 185.2 152.2 248.3 38.5 31.5 81.6 56 128.2 72.9 48.2 17.5 98.8 26.4 150.5 26.4 51.6 0 102.2-8.9 150.4-26.3 46.5-16.9 89.6-41.4 128.1-72.8 77.2-63 131.3-151 152.3-247.9 3.8-17.4-7.3-34.6-24.7-38.3-17.4-3.8-34.6 7.3-38.3 24.7C851.5 635.6 696.8 760.2 521 760.2c-176.3 0-331-124.8-368-296.7-3.2-15.1-16.6-25.5-31.4-25.5z"  horiz-adv-x="1024" />
      
      <glyph glyph-name="shuaxin" unicode="&#59090;" d="M910.1 530.9c-21.8 51.5-52.9 97.7-92.6 137.3-39.7 39.7-85.9 70.8-137.3 92.6-53.3 22.5-109.9 34-168.2 34-58.3 0-114.9-11.4-168.2-34-51.5-21.8-97.7-52.9-137.3-92.6s-70.8-85.9-92.6-137.3C91.4 477.6 80 421 80 362.7c0-58.3 11.4-114.9 34-168.2 21.8-51.5 52.9-97.7 92.6-137.3s85.9-70.8 137.3-92.6c53.3-22.5 109.9-34 168.2-34 16.6 0 30 13.4 30 30s-13.4 30-30 30c-205.1 0-372 166.9-372 372s166.9 372 372 372 372-166.9 372-372c0-96.5-36.2-186.5-101-255l0.4 109c0.1 16.6-13.3 30.1-29.9 30.1h-0.1c-16.5 0-29.9-13.4-30-29.9l-0.7-176.1c0-1.5 0.1-3 0.3-4.5v-0.2c0.1-0.4 0.1-0.8 0.2-1.2 0-0.2 0.1-0.3 0.1-0.5 0.1-0.3 0.1-0.6 0.2-0.9 0.1-0.2 0.1-0.4 0.2-0.6 0.1-0.3 0.1-0.5 0.2-0.8 0.1-0.2 0.2-0.5 0.2-0.7 0.1-0.2 0.1-0.4 0.2-0.7 0.1-0.3 0.2-0.5 0.3-0.8 0.1-0.2 0.1-0.4 0.2-0.6 0.1-0.3 0.3-0.6 0.4-0.9 0.1-0.1 0.1-0.3 0.2-0.4l0.6-1.2s0-0.1 0.1-0.1c0.7-1.3 1.5-2.6 2.4-3.8 0.1-0.1 0.1-0.2 0.2-0.2 0.2-0.3 0.5-0.6 0.7-0.9 0.2-0.2 0.3-0.4 0.5-0.5 0.2-0.2 0.3-0.4 0.5-0.5 0.2-0.2 0.4-0.5 0.7-0.7l0.3-0.3 0.8-0.8c0.1-0.1 0.2-0.1 0.2-0.2 0.3-0.3 0.6-0.5 0.9-0.8l0.2-0.2c0.3-0.3 0.6-0.5 0.9-0.7l0.2-0.2c0.3-0.2 0.6-0.5 0.9-0.7 0.1-0.1 0.2-0.1 0.3-0.2l0.9-0.6c0.1-0.1 0.3-0.2 0.4-0.2 0.3-0.2 0.5-0.3 0.8-0.5l0.6-0.3 0.6-0.3c0.2-0.1 0.5-0.2 0.7-0.4 0.2-0.1 0.3-0.2 0.5-0.2 0.3-0.1 0.6-0.3 0.9-0.4 0.1 0 0.2-0.1 0.3-0.1 0.4-0.1 0.7-0.3 1.1-0.4 0.1 0 0.2-0.1 0.2-0.1 0.4-0.1 0.8-0.3 1.2-0.4h0.2l1.2-0.3h0.2l1.2-0.3h0.2c0.4-0.1 0.8-0.1 1.2-0.2h0.3c0.4 0 0.7-0.1 1.1-0.1h0.6c0.3 0 0.6 0 0.9-0.1h1.5c1 0 2 0.1 3 0.2h0.4c0.4 0 0.7 0.1 1.1 0.1 0.2 0 0.4 0.1 0.6 0.1 0.3 0.1 0.6 0.1 0.9 0.2 0.2 0 0.4 0.1 0.7 0.1 0.3 0.1 0.5 0.1 0.8 0.2 0.2 0.1 0.5 0.1 0.7 0.2 0.2 0.1 0.5 0.1 0.7 0.2 0.3 0.1 0.5 0.2 0.8 0.3 0.2 0.1 0.4 0.1 0.6 0.2 0.3 0.1 0.5 0.2 0.8 0.3 0.2 0.1 0.4 0.1 0.5 0.2 0.3 0.1 0.6 0.3 0.9 0.4 0.2 0.1 0.3 0.1 0.5 0.2 0.3 0.2 0.7 0.3 1 0.5 0.1 0.1 0.2 0.1 0.3 0.2 0.4 0.2 0.8 0.5 1.2 0.7 0.9 0.5 1.7 1.1 2.5 1.7 52.6 39.4 96.2 91.1 126 149.4 31.3 61.2 47.2 127.3 47.2 196.5 0.1 58.1-11.3 114.7-33.8 168z"  horiz-adv-x="1024" />
      
      <glyph glyph-name="quse" unicode="&#58898;" d="M962.911982 834.730702A203.767348 203.767348 0 0 1 817.775 894.856534c-54.794635 0-106.303938-21.333321-144.989782-60.057565l-166.726303-166.835103-69.006893 69.04316c-14.555725 14.547192-38.148244 14.538658-52.693302-0.017067-14.549325-14.557858-14.538658-38.150378 0.017066-52.695436l95.052745-95.089011 0.292266-0.366933 8.657062-8.618661L127.09167 218.673462a154.523643 154.523643 0 0 1-43.583975-134.579122L26.667195 27.18344A90.303947 90.303947 0 0 1 0.000544-37.076789a90.210081 90.210081 0 0 1 26.594118-64.255963A90.231414 90.231414 0 0 1 90.889024-127.999403h0.036267a89.781281 89.781281 0 0 1 64.149296 26.630385l56.620767 56.550367a154.81591 154.81591 0 0 1 135.347121 43.434641l361.322456 361.505923 8.695461-8.693329c0.1088-0.145067 0.292266-0.256 0.437333-0.364799l94.980212-94.980212a37.188245 37.188245 0 0 1 63.564763 26.338118c0 9.864528-3.910398 19.362122-10.922661 26.340252l-69.006893 69.041026 166.798836 166.798836c79.950887 80.185553 79.950887 209.941211 0 290.126764zM294.364106 51.328493a80.731686 80.731686 0 0 0-78.431955-20.748788 37.188245 37.188245 0 0 1-37.917844-4.347731c-1.279999-0.985599-2.557865-2.007465-3.797331-3.103998L102.357818-48.726916a16.147191 16.147191 0 0 0-11.43466-4.75093 16.36479 16.36479 0 0 0-11.579727 27.94665l69.40796 69.482626c0.475733 0.401066 5.297064 5.695997 6.429862 7.340796 0.512 0.731733 2.630398 4.420264 3.178665 5.58933 0.823466 1.973332 1.555199 3.985064 2.190932 6.028797 0.512 1.898666 1.096533 6.207996 1.130666 6.391463a37.260778 37.260778 0 0 1-2.410665 17.425056 80.511953 80.511953 0 0 0 20.494921 79.272487l361.288323 361.471789 114.632467-114.634599-361.322456-361.508056z m615.83324 546.026348l-166.762569-166.837236-184.661226 184.735892 166.726303 166.835103c49.316238 49.316238 135.344988 49.279971 184.697492-0.072534 50.87997-51.03997 50.87997-133.623389 0-184.661225z"  horiz-adv-x="1024" />
      
      <glyph glyph-name="palette" unicode="&#59014;" d="M437.568 37.120000000000005c4.608-21.76 24.896-37.12 74.432-37.12a384 384 0 1 1-384 384c0-13.184-1.536-11.52 0-11.52a60.992 60.992 0 0 1 16.704 2.048l8.384 1.984C174.656 381.63199999999995 194.24 384 224 384A224 224 0 0 0 448 160c0-28.672-2.24-50.88-6.72-77.248-0.448-2.688-2.56-14.4-2.944-17.216-0.832-4.928-1.28-8.512-1.6-11.52a51.84 51.84 0 0 1 0.832-16.832z m-62.656-12.992C365.888 67.64800000000002 384 87.67999999999995 384 160A160 160 0 0 1 224 320c-58.24 0-59.712-11.52-96-11.52S64 334.528 64 384a448 448 0 1 0 448-448c-89.024 0-128 44.608-137.088 88.128zM320 512a64 64 0 1 0 0 128 64 64 0 0 0 0-128z m192 64a64 64 0 1 0 0 128 64 64 0 0 0 0-128z m192-96a64 64 0 1 0 0 128 64 64 0 0 0 0-128z m32-224a64 64 0 1 0 0 128 64 64 0 0 0 0-128z"  horiz-adv-x="1024" />
      
      <glyph glyph-name="chakandatuicon" unicode="&#58953;" d="M904.428542 825.866019h-125.714613a35.103557 35.103557 0 1 0 0 70.060849h210.328811A35.103557 35.103557 0 0 0 1024.073164 860.823311v-210.255678a35.103557 35.103557 0 0 0-70.060849 0V776.282245l-268.395943-268.395943a35.103557 35.103557 0 1 0-49.583774 49.583774l268.395944 268.395943zM119.864051-57.866019h125.714612a35.103557 35.103557 0 0 0 0-70.060849H35.249853A35.103557 35.103557 0 0 0 0.219429-92.823311v210.255678a35.103557 35.103557 0 1 0 70.060848 0v-125.714612l268.395943 268.395943a35.103557 35.103557 0 1 0 49.583774-49.583774l-268.395943-268.395943z m834.148264 49.583774v125.714612a35.103557 35.103557 0 1 0 70.060849 0v-210.32881a35.103557 35.103557 0 0 0-35.103557-35.030425h-210.255678a35.103557 35.103557 0 0 0 0 70.060849h125.714613l-268.395944 268.395943a35.103557 35.103557 0 1 0 49.583774 49.583774l268.395943-268.395943zM70.280277 776.282245v-125.714612a35.103557 35.103557 0 0 0-70.060848 0V860.896443A35.103557 35.103557 0 0 0 35.322985 895.926868h210.255678a35.103557 35.103557 0 1 0 0-70.060849H119.864051l268.395943-268.395943a35.103557 35.103557 0 1 0-49.583774-49.583774l-268.395943 268.395943z"  horiz-adv-x="1024" />
      
      <glyph glyph-name="chucun" unicode="&#58906;" d="M832-35.84H192c-55.296 0-99.84 45.056-99.84 99.84V704c0 55.296 45.056 99.84 99.84 99.84h455.168c26.624 0 52.736-10.752 71.168-30.208l184.32-184.32c18.944-18.432 29.696-44.544 29.696-70.656v-455.168a100.3008 100.3008 0 0 0-100.352-99.328z m-640 768c-15.36 0-28.16-12.8-28.16-28.16v-640c0-15.36 12.8-28.16 28.16-28.16h640c15.36 0 28.16 12.8 28.16 28.16V519.168c0 7.168-3.072 14.336-8.192 19.456l-184.832 184.832a26.4704 26.4704 0 0 1-19.456 8.704h-455.68zM724.992-35.84H298.496c-19.968 0-35.84 15.872-35.84 35.84v277.504c0 55.296 45.056 99.84 99.84 99.84h299.008c27.136 0 52.224-10.752 70.656-29.696 18.944-18.944 28.672-44.032 28.672-70.656v-276.992c0-19.968-15.872-35.84-35.84-35.84z m-390.656 71.68h354.816v241.664c0 7.68-2.56 14.848-7.68 19.968-5.12 5.12-12.288 8.192-19.968 8.192H362.496c-15.36 0-28.16-12.8-28.16-28.16v-241.664zM618.496 518.656h-256C307.2 518.656 262.656 563.2 262.656 618.496V768c0 19.968 15.872 35.84 35.84 35.84s35.84-15.872 35.84-35.84v-149.504c0-15.36 12.8-28.16 28.16-28.16h256c19.968 0 35.84-15.872 35.84-35.84s-15.872-35.84-35.84-35.84z"  horiz-adv-x="1024" />
      
      <glyph glyph-name="gerenzhongxin" unicode="&#59223;" d="M512.1 393.9c105.4 0 191.1 85.7 191.1 191.1s-85.7 191.1-191.1 191.1S321 690.4 321 585s85.8-191.1 191.1-191.1z m0 322.2c72.3 0 131.1-58.8 131.1-131.1s-58.8-131.1-131.1-131.1S381 512.7 381 585s58.8 131.1 131.1 131.1zM897.6 214.4c-51.4 51.4-119.8 79.7-192.5 79.7H324.7c-72.7 0-141.1-28.3-192.5-79.7S52.5 94.6 52.5 21.9c0-16.6 13.4-30 30-30s30 13.4 30 30c0 117 95.2 212.2 212.2 212.2H705c117 0 212.2-95.2 212.2-212.2 0-16.6 13.4-30 30-30s30 13.4 30 30c0.1 72.7-28.2 141.1-79.6 192.5z"  horiz-adv-x="1024" />
      
      <glyph glyph-name="xiangbao" unicode="&#59029;" d="M1022.784542-92.647841 953.836701 476.845044l-0.029361 0.227897c-6.897021 48.603516-51.528423 86.674848-101.609772 86.674848l-78.929156 0C767.805882 703.796604 654.991423 812 511.947793 812c-143.068796 0-255.901431-108.203396-261.365359-248.252211l-78.929156 0c-24.231152 0-47.986936-8.904749-66.889779-25.07423-18.985333-16.240786-31.344884-38.342571-34.802483-62.236772l-0.019574-0.128629-68.701768-568.286291c-4.639026-32.680107 4.135696-64.56747 24.067569-87.47738 18.156237-20.987469 43.584196-32.544488 71.598712-32.544488l830.090666 0c27.968378 0 53.418707 11.550029 71.670017 32.531905C1018.583133-156.526028 1027.370438-124.887534 1022.784542-92.647841zM335.666199 563.747789c5.41779 92.380654 80.896338 163.277501 176.281594 163.277501 95.407626 0 170.902952-70.896846 176.32214-163.277501L335.666199 563.747789zM511.947793 232.559354 141.116518 357.058064l13.02926 108.085953c1.091947 6.892827 9.718466 13.623469 17.501907 13.623469l680.549884 0c8.165133 0 16.470081-7.193427 17.374677-12.90902l13.198435-108.852133L511.947793 232.559354zM934.378797-123.810967c-1.964386-2.287356-4.173446-3.263257-7.38637-3.263257l-830.085073 0c-3.210128 0-5.515659 1.00666-7.452082 3.236692-3.804337 4.409731-5.255606 11.916341-3.983299 20.594591l45.213028 374.168634 367.811295-123.494846c8.777518-2.881565 18.300245-2.860593 26.96731 0.023768l367.703638 123.429133 45.302509-374.469234 0.04474-0.328563C939.736467-111.991098 938.206903-119.409625 934.378797-123.810967zM574.552276 405.534349 449.336321 405.534349c-23.425824 0-42.48386-19.080407-42.48386-42.534193 0-23.425824 19.058036-42.48386 42.48386-42.48386l125.215955 0c23.42862 0 42.489453 19.058036 42.489453 42.48386C617.041728 386.453942 597.980896 405.534349 574.552276 405.534349z"  horiz-adv-x="1024" />
      
      <glyph glyph-name="bofang2" unicode="&#58928;" d="M385.237333 667.733333l350.933334-210.56c55.253333-33.152 55.253333-113.194667 0-146.346666L385.28 100.266667c-40.789333-24.490667-89.6-10.325333-113.92 24.149333l-0.042667-0.042667a42.666667 42.666667 0 1 1-73.216-43.946666l-0.085333-0.042667c47.36-72.533333 147.626667-103.424 231.168-53.333333l350.933333 210.602666c110.506667 66.304 110.506667 226.389333 0 292.693334l-350.933333 210.56C315.392 809.173333 170.666667 727.253333 170.666667 594.56V256a42.666667 42.666667 0 1 1 85.333333 0V594.56C256 660.906667 328.362667 701.866667 385.237333 667.733333z"  horiz-adv-x="1024" />
      
      <glyph glyph-name="weixin" unicode="&#58905;" d="M684.2624 559.360922c10.256998 0 20.405555-0.753152 30.472294-1.873715C687.354982 684.973773 551.049933 779.695104 395.467162 779.695104c-173.940736 0-316.424704-118.557184-316.424704-269.103923 0-86.8992 47.403622-158.259405 126.61801-213.608038l-31.648051-95.184896 110.615859 55.468339c39.581082-7.834419 71.337677-15.888896 110.837965-15.888896 9.929523 0 19.775181 0.490189 29.539021 1.257677-6.182093 21.154816-9.763738 43.312435-9.763738 66.302054C415.242342 447.174861 533.955994 559.360922 684.2624 559.360922zM514.125517 645.150822c23.825613 0 39.60873-15.673958 39.60873-39.484314 0-23.715123-15.783117-39.607091-39.60873-39.607091-23.716147 0-47.513088 15.891968-47.513088 39.607091C466.612429 629.477888 490.40937 645.150822 514.125517 645.150822zM292.671693 566.060544c-23.713075 0-47.648154 15.891968-47.648154 39.607091 0 23.810253 23.934054 39.484314 47.648154 39.484314 23.715123 0 39.499264-15.673958 39.499264-39.484314C332.170957 581.95241 316.386816 566.060544 292.671693 566.060544zM973.059686 312.739021c0 126.504141-126.593434 229.620736-268.773478 229.620736-150.553088 0-269.128499-103.116493-269.128499-229.620736 0-126.72215 118.576538-229.620736 269.128499-229.620736 31.510938 0 63.294157 7.945933 94.942208 15.877632l86.79127-47.525376-23.796941 79.073894C925.73696 178.193715 973.059686 241.378714 973.059686 312.739021zM617.027379 352.331776c-15.755469 0-31.648051 15.673958-31.648051 31.661056 0 15.766118 15.892582 31.643648 31.648051 31.643648 23.934054 0 39.60873-15.877632 39.60873-31.643648C656.636109 368.005734 640.961434 352.331776 617.027379 352.331776zM791.077581 352.331776c-15.647027 0-31.430144 15.673958-31.430144 31.661056 0 15.766118 15.783117 31.643648 31.430144 31.643648 23.715123 0 39.605658-15.877632 39.605658-31.643648C830.684262 368.005734 814.793626 352.331776 791.077581 352.331776z"  horiz-adv-x="1024" />
      
      <glyph glyph-name="gexingdingzhi" unicode="&#58939;" d="M51.54291 818.485579C-13.716396 751.453906 29.153994 671.808962 72.203462 629.899456c7.503904-7.30743 18.472723-8.212032 24.498974-2.022053L243.293095 778.448724c6.025227 6.188956 5.4225 16.549931-2.676969 24.435529C198.788485 843.605699 116.803239 885.516228 51.54291 818.485579zM87.522356 783.456784c20.400632 20.955264 55.719023 29.750581 97.306186-0.415462l-94.290503-96.849792C59.271942 726.956979 67.122747 762.502543 87.522356 783.456784zM252.846682 729.54799 145.840576 619.635695c-15.770172-16.198937-15.423271-42.11212 0.774643-57.881268l153.547095-120.907721c16.197914-15.769149 42.11212-15.423271 57.882292 0.775666l78.437443 80.56592c15.769149 16.197914 15.421224 42.11212-0.775666 57.881268L310.72795 730.322633C294.53106 746.093828 268.616854 745.745904 252.846682 729.54799zM386.311393 558.421518c4.049223-3.941775 4.136204-10.42135 0.193405-14.470573l-51.554166-52.954049c-3.942799-4.050246-10.42135-4.136204-14.470573-0.193405l-121.612779 95.532797c-4.049223 3.942799-4.136204 10.42135-0.193405 14.470573l74.40971 76.428693c3.941775 4.050246 10.42135 4.136204 14.470573 0.193405L386.311393 558.421518zM708.034768 179.348993l-62.901609-64.608483 142.495388-75.803453 142.493342-75.804477-79.594803 140.41296-79.592756 140.41296L708.034768 179.348993zM824.468594 65.993273l-91.534739 65.355497 23.749914 24.39562L824.468594 65.993273zM654.180684 687.088187l102.323038-99.623937-37.540386-38.557463-102.323038 99.623937 37.540386 38.557463ZM729.264397 764.2043l102.322304-99.623223-37.5411-38.558196-102.322304 99.623223 37.5411 38.558196ZM579.100159 609.972793l102.323038-99.623937-37.541813-38.55893-102.323038 99.623937 37.541813 38.55893ZM428.939449 455.742128l102.321571-99.62251-37.5411-38.558196-102.321571 99.62251 37.5411 38.558196ZM278.779525 301.511442l102.322304-99.623223-37.541813-38.55893-102.322304 99.623223 37.541813 38.55893ZM353.856471 378.626615l102.322304-99.623223-37.5411-38.558196-102.322304 99.623223 37.5411 38.558196ZM203.69912 224.39513l102.322304-99.623223-37.541813-38.55893-102.322304 99.623223 37.541813 38.55893ZM775.772522 811.979398l-8.958022-9.200546 209.610972-204.069769-28.621874-29.398564 0.325411-0.318248-46.457078-47.717791 0.001023-0.001023-37.541011-38.559201-37.541011-38.559201-37.538965-38.560224-0.001023 0.001023-37.539988-38.558178-10.160407-10.4367-27.379581-28.121478L504.036631 532.865469l-37.542035-38.560224 209.611995-204.069769-27.025517-27.760251 0.324388-0.317225-48.052412-49.357128-37.541011-38.560224-37.539988-38.559201-37.539988-38.559201-37.539988-38.559201-8.566096-8.79941-28.972868-29.760814-0.326435 0.319272-37.539988-38.560224-9.636474-9.897418-27.904537-28.661783L128.637776 147.274484l-8.336876-8.563026c-16.000416-16.436344-15.648398-42.73122 0.786922-58.731636l188.160427-183.185112c16.435321-16.001439 42.729174-15.648398 58.729589 0.786922l655.470599 673.268964c16.002462 16.436344 15.648398 42.72815-0.787946 58.729589L834.501088 812.765297C818.065767 828.765713 791.771915 828.414719 775.772522 811.979398z"  horiz-adv-x="1051" />
      
      <glyph glyph-name="yuancailiaojiagong" unicode="&#58923;" d="M1010.34 88.719L627.513 786.781c-14.088 25.677-35.883 40.387-59.811 40.387-23.919 0-45.743-14.709-59.822-40.366L352.372 503.915H176.515a65.25 65.25 0 0 1-65.057-65.057v-390.342a65.25 65.25 0 0 1 65.057-65.057h390.342a64.722 64.722 0 0 1 6.76 0.356 31.675 31.675 0 0 1 4.422-0.305h370.013c28.838 0 52.442 11.923 64.752 32.711s11.405 47.207-2.46 72.498zM176.627 438.858h390.119l0.112-0.112v-99.506H176.515v99.506a1.159 1.159 0 0 0 0.112 0.112z m-0.112-164.676h390.342v-65.057H176.515z m0-225.555v95.441h390.342v-95.441l-0.112-0.112H176.627z m771.537-0.112H631.915V438.857a65.25 65.25 0 0 1-65.057 65.057h-140.28l138.298 251.588a34.745 34.745 0 0 0 2.795 4.361 35.517 35.517 0 0 0 2.796-4.36l382.84-698.074a24.488 24.488 0 0 0 2.97-7.746 24.6 24.6 0 0 0-8.225-1.169z"  horiz-adv-x="1104" />
      
      <glyph glyph-name="a-shouhou4" unicode="&#60250;" d="M795.306667 527.36c-13.653333 0-25.6 11.946667-25.6 25.6C769.706667 694.613333 653.653333 810.666667 512 810.666667s-257.706667-116.053333-257.706667-257.706667c0-13.653333-11.946667-25.6-25.6-25.6s-25.6 11.946667-25.6 25.6C203.093333 723.626667 341.333333 861.866667 512 861.866667s308.906667-138.24 308.906667-308.906667c0-13.653333-11.946667-25.6-25.6-25.6zM762.88 399.36c69.973333 0 126.293333 56.32 126.293333 126.293333s-56.32 126.293333-126.293333 126.293334v-252.586667zM262.826667 399.36c-69.973333 0-126.293333 56.32-126.293334 126.293333s56.32 126.293333 126.293334 126.293334v-252.586667zM512 317.44c-121.173333 0-220.16 98.986667-220.16 220.16S390.826667 757.76 512 757.76c121.173333 0 220.16-98.986667 220.16-220.16S633.173333 317.44 512 317.44z m0 389.12c-93.866667 0-168.96-76.8-168.96-168.96s76.8-168.96 168.96-168.96 168.96 76.8 168.96 168.96-75.093333 168.96-168.96 168.96zM921.6-93.866667H102.4c-13.653333 0-25.6 11.946667-25.6 25.6C76.8 172.373333 271.36 366.933333 512 366.933333s435.2-196.266667 435.2-435.2c0-13.653333-10.24-25.6-25.6-25.6zM128-42.666667h768C882.346667 157.013333 715.093333 315.733333 512 315.733333S141.653333 157.013333 128-42.666667z"  horiz-adv-x="1024" />
      
      <glyph glyph-name="3" unicode="&#58916;" d="M617.386667 597.333333l116.394666 201.685334a85.333333 85.333333 0 0 0 116.565334 31.232l73.898666-42.666667a85.333333 85.333333 0 0 0 31.232-116.565333l-58.325333-101.034667A85.12 85.12 0 0 1 834.56 597.333333h-217.173333zM274.773333 554.666667h559.786667a85.333333 85.333333 0 0 0 83.712-102.058667l-51.2-256A85.333333 85.333333 0 0 0 783.36 128H325.973333a85.333333 85.333333 0 0 0-83.712 68.608l-51.2 256A85.333333 85.333333 0 0 0 274.773333 554.666667zM341.333333 21.33333300000004a64 64 0 1 1 128 0 64 64 0 0 1-128 0zM640 21.33333300000004a64 64 0 1 1 128 0 64 64 0 0 1-128 0zM138.069333 640l-8.533333 31.445333A42.666667 42.666667 0 0 0 169.685333 725.333333H170.666667a42.837333 42.837333 0 0 0 37.888-23.04 42.368 42.368 0 0 0 3.498666-9.301333l63.786667-233.770667a42.666667 42.666667 0 1 0-82.346667-22.442666L138.069333 640H85.333333a42.666667 42.666667 0 1 0 0 85.333333h84.394667z"  horiz-adv-x="1024" />
      
      <glyph glyph-name="mojuguanli" unicode="&#58973;" d="M440.32 215.04c0-5.12 0-5.12 0 0l61.44-81.92c0-5.12 5.12-5.12 10.24-5.12s5.12 0 10.24 5.12v5.12l61.44 76.8v102.4h-143.36v-102.4z m174.08 240.64h-51.2v112.64h-107.52V455.68h-51.2c-10.24 0-15.36-5.12-15.36-15.36v-117.76h245.76v117.76c0 5.12 0 10.24-5.12 10.24s-10.24 5.12-15.36 5.12z m-122.88-81.92c0-5.12 0-10.24-5.12-10.24-5.12-5.12-5.12-5.12-10.24-5.12-10.24 0-15.36 5.12-15.36 15.36V404.48c0 10.24 5.12 15.36 15.36 15.36 10.24 0 15.36-5.12 15.36-15.36v-30.72z m76.8 0c0-5.12 0-10.24-5.12-10.24-5.12-5.12-5.12-5.12-10.24-5.12-10.24 0-15.36 5.12-15.36 15.36V404.48c0 10.24 5.12 15.36 15.36 15.36s15.36-5.12 15.36-15.36v-30.72z m250.88 107.52v158.72h-158.72v-158.72h46.08v-189.44h-46.08v-158.72h158.72v158.72h25.6v189.44h-25.6z m-614.4 0h-25.6v-189.44h25.6v-158.72h158.72v158.72h-46.08v189.44h46.08v158.72h-158.72v-158.72z"  horiz-adv-x="1024" />
      
      <glyph glyph-name="zixun1" unicode="&#59021;" d="M224 416c-52.992 0-96 57.28-96 128 0 64.192 35.456 117.376 81.664 126.592C253.184 783.232 372.096 864 512 864c139.904 0 258.88-80.832 302.336-193.408C860.544 661.376 896 608.192 896 544c0-70.72-43.008-128-96-128H768V576c0 122.112-113.216 224-256 224S256 698.112 256 576v-160h-32z m-158.208-512A258.688 258.688 0 0 0 64-64c0 140.8 88.448 263.936 220.288 330.752A382.272 382.272 0 0 1 512 192a382.272 382.272 0 0 1 227.712 74.752C871.552 199.936 960 76.8 960-64c0-11.712-0.64-22.4-1.792-32H65.792zM512 288a224 224 0 1 0 0 448 224 224 0 0 0 0-448z"  horiz-adv-x="1024" />
      
      <glyph glyph-name="mojuguanli1" unicode="&#59009;" d="M156.16 39.2192h716.7488v-56.32H156.16zM315.8528 253.696h397.4144v-56.32H315.8528zM156.16 370.5856h215.9616v-56.32H156.16zM656.9472 370.5856h215.9616v-56.32h-215.9616zM156.2112 340.2752h56.32v-356.5056h-56.32zM315.8528 340.3264h56.32v-119.7056h-56.32zM656.9472 340.3264h56.32v-119.7056h-56.32zM816.64 342.4256h56.32v-358.656h-56.32zM156.2112 780.032H872.96v-56.32H156.2112zM394.2912 426.9568h240.2816v-56.32H394.2912zM578.2528 531.8144h294.7072v-56.32h-294.7072zM156.2112 531.8144h294.4v-56.32h-294.4zM816.5888 779.1104h56.32v-303.616h-56.32zM578.2016 523.4688h56.32v-119.7056h-56.32zM394.24 523.4688h56.32v-119.7056H394.24zM156.16 779.0592h56.32v-303.616h-56.32z"  horiz-adv-x="1024" />
      
      <glyph glyph-name="xingbie-nv" unicode="&#59116;" d="M512 243.5c-65 0-126.1 25.3-172.1 71.3s-71.3 107.1-71.3 172.1S293.9 613 339.9 659 447 730.3 512 730.3 638.1 705 684.1 659s71.3-107.1 71.3-172.1-25.3-126.1-71.3-172.1S577 243.5 512 243.5z m0 426.8c-101.1 0-183.4-82.3-183.4-183.4 0-101.1 82.3-183.4 183.4-183.4s183.4 82.3 183.4 183.4c0 101.1-82.3 183.4-183.4 183.4zM614.9 131.4H409.1c-16.6 0-30 13.4-30 30s13.4 30 30 30h205.8c16.6 0 30-13.4 30-30s-13.5-30-30-30zM512 37.7c-16.6 0-30 13.4-30 30V273.5c0 16.6 13.4 30 30 30s30-13.4 30-30v-205.8c0-16.6-13.4-30-30-30z"  horiz-adv-x="1024" />
      
      <glyph glyph-name="xingbie-nan" unicode="&#59117;" d="M457.8 75.1c-65 0-126.1 25.3-172.1 71.3s-71.3 107.1-71.3 172.1 25.3 126.1 71.3 172.1 107.1 71.3 172.1 71.3 126.1-25.3 172.1-71.3 71.3-107.1 71.3-172.1-25.3-126.1-71.3-172.1-107.1-71.3-172.1-71.3z m0 426.8c-101.1 0-183.4-82.3-183.4-183.4 0-101.1 82.3-183.4 183.4-183.4 101.1 0 183.4 82.3 183.4 183.4 0 101.1-82.3 183.4-183.4 183.4zM614.5 442.9c-7.5 0-15 2.8-20.8 8.4-11.9 11.5-12.3 30.5-0.7 42.4l162.2 168c11.5 11.9 30.5 12.3 42.4 0.7 11.9-11.5 12.3-30.5 0.7-42.4L636.1 452c-5.9-6-13.7-9.1-21.6-9.1zM614.7 608.1c-16.3 0-29.7 13.1-30 29.5-0.3 16.6 12.9 30.2 29.5 30.5l162.1 2.8c16.6 0.3 30.2-12.9 30.5-29.5 0.3-16.6-12.9-30.2-29.5-30.5l-162.1-2.8h-0.5zM779.6 448.9c-16.3 0-29.7 13.1-30 29.5l-2.8 162.1c-0.3 16.6 12.9 30.2 29.5 30.5h0.5c16.3 0 29.7-13.1 30-29.5l2.8-162.1c0.3-16.6-12.9-30.2-29.5-30.5h-0.5z"  horiz-adv-x="1024" />
      
      <glyph glyph-name="link" unicode="&#58899;" d="M160.788521 134.45655M380.145461 253.249097c12.06171-12.065803 32.393781-11.472286 45.205575 1.340531l216.680994 216.678948c12.784164 12.785188 13.399171 33.139771 1.334391 45.205575-12.06171 12.06171-32.392758 11.468193-45.204551-1.339508L381.481899 298.454672C368.696712 285.665391 368.080681 265.310807 380.145461 253.249097L380.145461 253.249097zM487.685733 273.055189c3.13541-6.207375 4.78191-13.139252 4.78191-20.35356 0-12.06478-4.628414-23.339568-13.028735-31.737842L367.445208 108.97111c-8.400321-8.400321-19.676132-13.005198-31.737842-13.005198-12.065803 0-23.337521 4.626367-31.737842 13.005198l-68.12661 68.125587c-8.400321 8.402367-13.025665 19.672038-13.025665 31.737842 0 12.060687 4.626367 23.338544 13.025665 31.737842l111.992677 111.992677c8.400321 8.402367 19.675108 13.025665 31.737842 13.025665 7.216355 0 14.147208-1.664919 20.355607-4.779863l44.787042 44.789089c-19.104103 14.671141-42.113143 22.040992-65.142649 22.040992-27.41642 0-54.809303-10.394744-75.602885-31.188326L191.976848 284.461983c-41.583071-41.587164-41.583071-109.623723 0-151.210887l68.127633-68.12354c20.793582-20.794605 48.186466-31.191396 75.603909-31.191396s54.810327 10.396791 75.602885 31.191396l111.994724 111.989607c38.249139 38.252209 41.279149 98.895381 9.146311 140.747581l-44.790112-44.789089L487.685733 273.055189zM831.492056 636.469082l-68.12661 68.127633c-20.792559 20.793582-48.185442 31.188326-75.601862 31.188326-27.41949 0-54.815443-10.394744-75.604932-31.188326L500.165975 592.603015c-38.254256-38.250162-41.280172-98.897428-9.147334-140.744511l44.787042 44.786019c-3.112897 6.208399-4.779863 13.139252-4.779863 20.355607 0 12.06171 4.629437 23.337521 13.006222 31.737842L656.024719 660.730649c8.401344 8.400321 19.673062 13.025665 31.738865 13.025665 12.060687 0 23.335475-4.625344 31.736818-13.025665l68.12354-68.127633c8.399297-8.399297 13.009292-19.673062 13.009292-31.737842 0-12.06171-4.629437-23.337521-13.009292-31.736818L675.633313 417.134655c-8.401344-8.399297-19.675108-13.029758-31.738865-13.029758-7.219425 0-14.144138 1.671059-20.354584 4.78191l-44.790112-44.784996c19.10615-14.677281 42.113143-22.045085 65.143673-22.045085 27.41642 0 54.81135 10.396791 75.604932 31.191396l111.991654 111.989607c41.584094 41.586141 41.584094 109.6227 0 151.209864L831.49001 636.469082zM831.492056 636.469082"  horiz-adv-x="1024" />
      
      <glyph glyph-name="shengzi1" unicode="&#59222;" d="M574.7 136H309.1c-61.2 0-111.3 49.8-110.3 110.9 1 59.2 49.5 107 109 107H714.6c93.4 0 170.5 75.1 170.7 168.6 0.2 93.4-75.7 169.4-169 169.4h-267s-0.1 0-0.1 0.1v16.6s0 0.1-0.1 0.1h-59.9s-0.1 0-0.1-0.1v-91.8s0-0.1 0.1-0.1h59.9s0.1 0 0.1 0.1v15.1s0 0.1 0.1 0.1h265.6c61.2 0 111.3-49.8 110.3-110.9-1-59.2-49.5-107-109-107H309.5C216 414 139 338.9 138.8 245.4c-0.2-93.4 75.7-169.4 169-169.4h266.9s0.1 0 0.1-0.1v-16.6s0-0.1 0.1-0.1h59.9s0.1 0 0.1 0.1v91.8s0 0.1-0.1 0.1h-59.9s-0.1 0-0.1-0.1l-0.1-15.1c0 0.1 0 0 0 0zM771.1 190.9l-120.4-39.2v-92.6l120.6-38H984s0.1 0 0.1 0.1V190.8s0 0.1-0.1 0.1H771.1zM924 81.2H780.5l-69.8 22V108v0.1l69.9 22.8H924s0.1 0 0.1-0.1l-0.1-49.6zM373.4 616.4v92.4 0.1l-120.6 38H40s-0.1 0-0.1-0.1v-169.6s0-0.1 0.1-0.1h212.9l120.5 39.3c0-0.1 0 0 0 0zM100 637.2v49.6s0 0.1 0.1 0.1h143.5l69.8-22V659.9l-69.9-22.8-143.5 0.1c0-0.1 0 0 0 0z"  horiz-adv-x="1024" />
      
      <glyph glyph-name="shizhuang" unicode="&#59221;" d="M822.3 744.9c-0.2 0.8-0.8 1.4-1.1 2.1-0.8 2.1-1.9 4.1-3.2 6-0.9 1.4-1.9 2.8-3 4-1.5 1.5-3.1 2.8-4.8 4-1.6 1.1-3 2.2-4.7 3-0.7 0.3-1.1 0.8-1.7 1.1L589.1 848.9c-3.6 1.4-7.4 2.1-11.3 2.1H446.6c-3.9 0-7.7-0.7-11.3-2.1l-214.6-83.8c-0.7-0.2-1.1-0.8-1.8-1.1-1.7-0.8-3-1.8-4.5-2.8-1.8-1.2-3.5-2.6-5-4.1-1.2-1.2-2-2.6-3-4-1.3-1.9-2.4-3.9-3.2-6.1-0.3-0.8-0.9-1.3-1.1-2.1L15.3 112.6c-4.8-16.1 4.1-33.1 20.1-38.4l94.6-31.1c16.1-5.4 33.5 3.2 39.1 19.2l101.4 288.5c4-56.1 5.2-112.4 3.6-168.6l-0.5-19c-1.9-73.1-3.7-142.1-37.4-199.4-8.7-14.8-3.7-33.9 11.1-42.6 4.8-2.8 10.2-4.3 15.7-4.3h498.2c17.2 0 31.1 13.9 31.1 31.1 0 5.6-1.5 11-4.3 15.8-33.6 57.3-35.5 126.3-37.4 199.4l-0.5 19c-1.6 56.2-0.4 112.5 3.6 168.6l101.4-288.5c5.6-16 23-24.5 39.1-19.2l94.6 31.1c16 5.3 24.9 22.3 20.1 38.4L822.3 744.9z m-369.9 43.9h119.5l2.5-1c-0.3-94.5-36.9-154.7-62.2-154.7-25.3 0-62 60.2-62.2 154.7l2.4 1zM120.5 111.7l-36.9 12.1 146.6 496.5c9.8-42 17.9-84.4 24.5-126.9L120.5 111.7z m586.2 382.2c-0.1-0.5-0.2-0.9-0.2-1.4-15.4-103.3-21.6-207.7-18.5-312.1l0.5-18.7c1.6-61.1 3.2-123.8 24.1-182.4H311.7c20.9 58.6 22.5 121.3 24.1 182.4l0.5 18.7c3.1 104.7-3.3 209-18.5 312.1 0 0.5-0.2 0.9-0.2 1.4-11.1 75.5-27.1 150.1-47.8 223.6l118.6 46.3c6.7-111.6 57.6-192.9 123.8-192.9S629.3 652.3 636 763.8l118.6-46.3c-20.8-73.5-36.8-148.1-47.9-223.6z m197.2-382.2L769.7 493.5c6.5 42.5 14.7 84.8 24.4 126.9l146.7-496.5-36.9-12.2z"  horiz-adv-x="1024" />
      
      <glyph glyph-name="xiezi" unicode="&#58921;" d="M739.996 341C753.253 341 764 324.658 764 304.5c0-19.957-10.533-36.173-23.607-36.495l-0.397-0.005H585.004C571.747 268 561 284.342 561 304.5c0 19.957 10.533 36.173 23.607 36.495l0.397 0.005h154.992z m-45 138C708.253 479 719 462.658 719 442.5c0-19.957-10.533-36.173-23.607-36.495l-0.397-0.005H540.004C526.747 406 516 422.342 516 442.5c0 19.957 10.533 36.173 23.607 36.495l0.397 0.005h154.992zM280.183 777.817a68 68 0 0 1-2.866-3.092L88.072 557.442c-23.122-26.548-22.158-66.354 2.222-91.751l443.51-462.025a68 68 0 0 1 49.057-20.91h310.933c34.454 0 63.463 25.77 67.525 59.983 9.283 78.178 1.228 138.91-26.449 182.13l-0.896 1.383c-25.558 38.976-65.54 60.758-116.963 65.603l-1.679 0.151L680.48 608.86l-0.324 0.75c-10.845 24.661-35.253 40.621-62.245 40.621l-111.554 0.001-130.01 128.243c-26.469 26.11-68.931 26.082-95.368 0.136l-0.796-0.794z m48.632-53.589l128.15-126.408 0.472-0.462a68 68 0 0 1 47.28-19.127l110.548 0.001 152.226-357.673 24.144 0.319c41.553 0.548 67.467-11.203 82.602-34.837l0.51-0.808c16.232-26.03 22.143-68.82 15.707-128.426l-0.226-2.05H584.565L144.768 512.913l184.047 211.315z"  horiz-adv-x="1024" />
      
      <glyph glyph-name="gongsi" unicode="&#59109;" d="M541.1 755.6c-11.1 8.3-25.6 10.9-38.8 7L113.8 647.8c-18.6-5.5-31.5-22.8-31.5-42.2V-19c0-24.3 19.7-44 44-44h388.5c24.3 0 44 19.7 44 44V720.4c0 13.8-6.6 26.9-17.7 35.2zM498.8-3H142.3V593.7L498.8 699v-702zM939.5 313.1l-285 160.6c-13.6 7.6-30.3 7.5-43.8-0.3-13.4-7.9-21.8-22.4-21.8-38V-19c0-24.3 19.7-44 44-44h284.9c24.3 0 44 19.7 44 44V274.8c0.1 15.9-8.5 30.6-22.3 38.3zM901.9-3H649V408l252.9-142.5V-3zM266.2 340.1h108.7c16.6 0 30 13.4 30 30s-13.4 30-30 30H266.2c-16.6 0-30-13.4-30-30s13.4-30 30-30zM266.2 164.8h108.7c16.6 0 30 13.4 30 30s-13.4 30-30 30H266.2c-16.6 0-30-13.4-30-30s13.4-30 30-30zM721.1 86h108.7c16.6 0 30 13.4 30 30s-13.4 30-30 30H721.1c-16.6 0-30-13.4-30-30s13.4-30 30-30z"  horiz-adv-x="1024" />
      
      <glyph glyph-name="kefu" unicode="&#58883;" d="M888.5 134.3 756.4 134.3c-15.8 0-28.6 12.8-28.6 28.6l-0.3 336.8C725.7 617.5 630 707.4 512 708c-118-0.6-213.7-90.5-215.6-208.3l-0.2-292.2c0 0 36.9-127.4 124.8-112.6 6.7 22.3 30.3 30.7 45.5 30.7l92.6 0c31.6 0 57.2-25.6 57.2-57.2l0-17.9c0-31.6-25.6-57.2-57.2-57.2l-85.2 0c-24.2 0-44.8 15.2-53.2 36.5-1.4 0.8-12.8-0.2-24 2.2-86.7 31-124.7 102.7-124.7 102.7-1.5-0.3-3-0.5-4.5-0.5L135.5 134.2c-15.8 0-28.6 12.8-28.6 28.6L106.9 456c0 15.8 12.8 28.6 28.6 28.6l94.4 0c0 24.2-0.1 15.2-0.1 15.2 3.4 273.9 277.5 274.8 277.5 274.8 2.2 0.1 7.3 0.1 9.4 0 0 0 274.1-1 277.5-274.8 0 0 0 9.1-0.1-15.2l94.4 0c15.8 0 28.6-12.8 28.6-28.6l0-293.1C917.1 147.1 904.3 134.3 888.5 134.3L888.5 134.3zM235.8 400.8c0 9.7-5.2 17.6-11.6 17.6l-48.8 0c-6.4 0-11.6-7.9-11.6-17.6l0-180.5c0-9.8 5.2-17.6 11.6-17.6l48.8 0c6.4 0 11.6 7.9 11.6 17.6L235.8 400.8 235.8 400.8zM860.2 400.8c0 9.7-5.2 17.6-11.6 17.6l-48.7 0c-6.4 0-11.7-7.9-11.7-17.6l0-180.5c0-9.8 5.3-17.6 11.7-17.6l48.7 0c6.4 0 11.6 7.9 11.6 17.6L860.2 400.8 860.2 400.8zM860.2 400.8"  horiz-adv-x="1024" />
      
      <glyph glyph-name="zhijian" unicode="&#58915;" d="M512 775.99744l336-145.69984V441.6c0-304.30208-257.19808-420.89984-336-449.39776-78.80192 28.49792-336 145.19808-336 449.39776l0.19968 189.30176L512 775.99744m0 56.00256c-7.5008 0-15.0016-1.50016-22.09792-4.59776L153.90208 682.10176c-20.59776-8.89856-33.89952-29.30176-33.89952-51.90144V441.4976c0-344.20224 294.2976-473.7024 372.89984-502.09792a55.3984 55.3984 0 0 1 38.1952 0c78.60224 28.40064 372.89984 157.9008 372.89984 502.09792V630.20032c0 22.59968-13.39904 42.99776-33.89952 51.90144l-336 145.30048A55.09632 55.09632 0 0 1 512 832zM374.09792 433.82272l144.77312-144.82432-50.18624-50.19648-144.82944 144.82944 50.24256 50.19136z m0 0M418.38592 289.0496l246.36416 246.47168 50.29376-50.29376-246.35904-246.47168-50.29888 50.29376z m0 0"  horiz-adv-x="1024" />
      
      <glyph glyph-name="kefu1" unicode="&#58917;" d="M358.4-21.333333c-81.066667 12.8-145.066667 85.333333-145.066667 170.666666V503.466667C213.333333 644.266667 315.733333 768 452.266667 785.066667 622.933333 810.666667 768 678.4 768 512v-315.733333h64V499.2c0 183.466667-136.533333 341.333333-320 354.133333C315.733333 866.133333 149.333333 708.266667 149.333333 512v-362.666667c0-115.2 85.333333-213.333333 196.266667-230.4 21.333333-4.266667 38.4 12.8 38.4 29.866667 0 17.066667-12.8 29.866667-25.6 29.866667zM149.333333 405.333333H85.333333c-12.8 0-21.333333-8.533333-21.333333-21.333333v-128c0-12.8 8.533333-21.333333 21.333333-21.333333h64v170.666666zM85.333333 469.333333h128v-298.666666H85.333333c-46.933333 0-85.333333 38.4-85.333333 85.333333v128c0 46.933333 38.4 85.333333 85.333333 85.333333zM832 405.333333H896c12.8 0 21.333333-8.533333 21.333333-21.333333v-128c0-12.8-8.533333-21.333333-21.333333-21.333333h-64v170.666666zM896 469.333333h-128v-298.666666h128c46.933333 0 85.333333 38.4 85.333333 85.333333v128c0 46.933333-38.4 85.333333-85.333333 85.333333zM469.333333-21.333333h42.666667c25.6 0 42.666667-17.066667 42.666667-42.666667s-17.066667-42.666667-42.666667-42.666667h-42.666667c-25.6 0-42.666667 17.066667-42.666666 42.666667s17.066667 42.666667 42.666666 42.666667z"  horiz-adv-x="1024" />
      
      <glyph glyph-name="tuandui" unicode="&#59219;" d="M957.7 252.5c-20.6 74.3-76.8 131.7-146.9 155.9 17.2 18.4 28.2 43.2 28.2 70.8 0 56.9-46.1 103-103 103s-103-46.1-103-103c0-27.5 11-52.4 28.2-70.8-35.2-12.1-66.7-32.7-92.3-59.3-29.8 22.2-63.6 39-99.6 49.7 35.4 27.3 58.2 70.3 58.2 118.5 0 82.6-67.2 149.8-149.8 149.8s-149.8-67.2-149.8-149.8c0-48.1 22.8-91.1 58.2-118.5-104.1-30.9-188.8-114-219-222.6-6.7-24-1.8-49.3 13.2-69.2 15-19.7 37.8-31.1 62.5-31.1h469.8c24.6 0 47.5 11.4 62.5 31.1 14.5 19.5 19.7 43.9 13.7 67.4h209.8c19.3 0 37.2 8.7 48.8 24.2 11.7 15.4 15.5 35.1 10.3 53.9zM736 537.3c32 0 58.2-26.2 58.2-58.2S768 420.9 736 420.9s-58.2 26.2-58.2 58.2 26.2 58.2 58.2 58.2z m-463.3-20.1c0 57.8 47.2 105 105 105s105-47.2 105-105c0-58-47.2-105-105-105s-105 47-105 105zM639.5 134c-6.5-8.5-16.3-13.4-26.9-13.4H142.9c-10.5 0-20.4 4.9-26.9 13.4s-8.5 19.7-5.6 30.2c33.1 119.6 143.1 203.1 267.4 203.1 60.5 0 117.3-19.7 163.9-53.7 12.1-9 23.6-18.9 34.3-29.6 18.6-19 34.7-41 47.5-64.9 7.4-14.3 13.7-29.1 18.8-44.8 0.9-3.4 2-6.7 2.9-10.1 2.8-10.5 0.8-21.7-5.7-30.2z m272.1 91.6c-1.8-2.5-5.8-6.5-13-6.5H672.9c-16.8 38.3-40.5 72.3-69.6 100.5 34 35.2 81.7 56.4 132.8 56.4 82.9 0 156.3-55.8 178.5-135.5 1.5-5.2 0.4-10.6-3-14.9z"  horiz-adv-x="1024" />
      
      <glyph glyph-name="fanhui" unicode="&#58890;" d="M310.826667 533.333333l95.402666-122.282666a21.333333 21.333333 0 0 0-3.712-29.952l-16.810666-13.098667a21.333333 21.333333 0 0 0-29.952 3.669333L220.074667 545.706667A32 32 0 0 0 245.333333 597.333333h389.546667C743.253333 597.333333 810.666667 501.76 810.666667 384.042667c0-115.669333-65.024-209.92-170.112-213.205334l-6.613334-0.128-313.941333 0.042667a21.333333 21.333333 0 0 0-21.333333 21.333333v21.333334a21.333333 21.333333 0 0 0 21.333333 21.333333l313.173333-0.042667h1.706667c65.834667 0 109.781333 60.330667 111.701333 143.616l0.085334 5.717334c0 86.186667-44.458667 149.290667-111.786667 149.290666H310.826667z"  horiz-adv-x="1024" />
      
      <glyph glyph-name="time" unicode="&#58926;" d="M486.372 350.138c16.061-7.896 31.954-16.094 47.88-24.292l74.962-38.203c35.515-18.043 71.064-36.154 106.512-54.297 5.812-2.923 11.391-4.435 16.8-4.435 4.368 0 8.635 0.974 12.835 2.889 11.289 5.174 17.606 14.918 17.808 27.417 0.168 12.634-6.082 22.311-18.614 28.694l-69.216 35.28c-43.411 22.176-86.856 44.386-130.368 66.36-4.973 2.52-6.183 4.469-6.149 9.777 0.101 30.576 0.067 61.152 0.067 91.762-0.034 39.883-0.034 79.733 0.269 119.616 0.168 24.259-15.96 35.448-31.080 35.549h-0.168c-8.232 0-15.893-3.192-21.638-9.038-6.351-6.485-9.777-15.826-9.576-26.242 0.605-28.459 0.504-57.423 0.369-85.411-0.034-11.692-0.101-23.386-0.101-35.045l0.034-28.863c0-32.054 0.034-64.109-0.168-96.129-0.034-7.628 2.722-12.063 9.543-15.389zM929.602 434.202c-3.595 32.289-11.592 64.277-23.688 95.088-7.627 19.32-26.409 29.904-45.562 25.838-12.668-2.688-22.613-9.609-28.089-19.421-5.779-10.449-6.283-23.755-1.377-37.397 20.328-56.246 25.368-112.694 14.986-167.899-15.725-83.631-57.322-151.234-123.682-200.894-75.903-56.851-161.448-77.918-254.352-62.529-86.016 14.179-155.769 55.809-207.379 123.749-57.456 75.566-78.322 160.306-62.026 251.832 14.649 82.085 55.44 149.184 121.229 199.449 74.692 56.986 159.969 78.725 253.882 64.714 15.322-2.318 30.374-6.317 46.268-10.517 4.099-1.109 8.232-2.217 12.365-3.259l-5.712-9.576c-4.301-7.056-8.568-14.112-12.566-21.303-5.275-9.543-3.696-15.926-1.411-19.623 2.318-3.729 7.56-8.165 19.589-7.628 1.612 0.068 3.226 0.168 4.838 0.369l24.091 3.797c26.746 4.2 53.457 8.4 80.169 12.835 9.24 1.512 16.565 6.115 20.597 12.869 3.897 6.619 4.435 14.885 1.478 23.285-11.962 34.238-24.326 68.343-36.994 102.346-2.049 5.544-8.602 13.675-16.061 13.675h-0.101c-6.922-0.067-13.776-5.544-17.237-10.651-6.451-9.408-12.532-19.421-18.783-30.845-0.235 0.067-0.537 0.168-0.84 0.303-64.781 25.2-131.645 34.037-198.576 25.939-87.998-10.517-163.497-43.915-224.448-99.288-114.374-103.891-158.088-232.546-129.931-382.334 18.379-97.406 68.074-177.509 147.806-238.191 76.809-58.397 159.969-87.729 248.271-87.729 29.534 0 59.674 3.259 90.317 9.878 137.491 29.534 236.275 110.074 293.529 239.299 27.72 62.631 37.598 131.208 29.4 203.817z"  horiz-adv-x="1024" />
      
      <glyph glyph-name="manual" unicode="&#58922;" d="M236.96 679.5840000000001c0-106.048 82.464-192.064 184.224-192.064 101.696 0 184.192 86.016 184.192 192.064 0 106.016-82.496 192-184.192 192-101.792 0-184.224-85.984-184.224-192z m575.648-617.472c-13.92 30.944-42.496 122.048-75.2 122.048-32.64 0-35.296-12.32-35.296-12.32l35.296-94.592-180.736 15.776-76.416 180.736C405.568 457.984 330.784 478.752 257.824 478.752c-35.328 0-109.504-4.224-166.336-76.064C34.784 330.88 0-66.88 0-66.88h346.048L221.696 174.91200000000003l52.512 33.184s9.312-20.032 70.272-149.824c61.056-129.888 102.72-147.584 102.72-147.584h325.216c47.84 0 86.464 15.456 86.464 77.312 0 61.824-46.272 74.112-46.272 74.112z m0 0M690.464 421.312s-33.568-64.928-60.16-92.704c-26.688-27.776-78.816-98.464-38.24-155.232L711.392 369.28l249.12-113.632-91.488-136.704s-12.8-54.464 4.608-56.768c17.376-2.304 151.808 216.672 151.808 216.672L690.464 421.312z m0 0"  horiz-adv-x="1025" />
      
      </font>
</defs>
</svg>
